<?xml version="1.0" standalone="no"?>
<!DOCTYPE svg PUBLIC "-//W3C//DTD SVG 1.1//EN" "http://www.w3.org/Graphics/SVG/1.1/DTD/svg11.dtd" >
<svg xmlns="http://www.w3.org/2000/svg" xmlns:xlink="http://www.w3.org/1999/xlink" version="1.1">
<metadata>
Created by FontForge 20201107 at Thu Jan  5 15:57:20 2017
 By www-data
</metadata>
<defs>
<font id="iconfont" horiz-adv-x="1024" >
  <font-face 
    font-family="iconfont"
    font-weight="500"
    font-stretch="normal"
    units-per-em="1024"
    panose-1="2 0 6 3 0 0 0 0 0 0"
    ascent="896"
    descent="-128"
    x-height="792"
    bbox="0 -147 1186 896"
    underline-thickness="0"
    underline-position="0"
    unicode-range="U+0078-E922"
  />
<missing-glyph 
 />
    <glyph glyph-name=".notdef" 
 />
    <glyph glyph-name=".notdef" 
 />
    <glyph glyph-name=".null" horiz-adv-x="0" 
 />
    <glyph glyph-name="nonmarkingreturn" horiz-adv-x="341" 
 />
    <glyph glyph-name="x" unicode="x" horiz-adv-x="1001" 
d="M281 543q-27 -1 -53 -1h-83q-18 0 -36.5 -6t-32.5 -18.5t-23 -32t-9 -45.5v-76h912v41q0 16 -0.5 30t-0.5 18q0 13 -5 29t-17 29.5t-31.5 22.5t-49.5 9h-133v-97h-438v97zM955 310v-52q0 -23 0.5 -52t0.5 -58t-10.5 -47.5t-26 -30t-33 -16t-31.5 -4.5q-14 -1 -29.5 -0.5
t-29.5 0.5h-32l-45 128h-439l-44 -128h-29h-34q-20 0 -45 1q-25 0 -41 9.5t-25.5 23t-13.5 29.5t-4 30v167h911zM163 247q-12 0 -21 -8.5t-9 -21.5t9 -21.5t21 -8.5q13 0 22 8.5t9 21.5t-9 21.5t-22 8.5zM316 123q-8 -26 -14 -48q-5 -19 -10.5 -37t-7.5 -25t-3 -15t1 -14.5
t9.5 -10.5t21.5 -4h37h67h81h80h64h36q23 0 34 12t2 38q-5 13 -9.5 30.5t-9.5 34.5q-5 19 -11 39h-368zM336 498v228q0 11 2.5 23t10 21.5t20.5 15.5t34 6h188q31 0 51.5 -14.5t20.5 -52.5v-227h-327z" />
    <glyph glyph-name="guangfayinxing" unicode="&#xe501;" horiz-adv-x="1187" 
d="M593 503q-43 90 -62 135q-47 111 -94 258v0q-144 -419 -437 -755v0q210 49 418 62q104 156 175 300zM593 207q-88 0 -175 -6q-124 -181 -262 -329v0q206 41 437.5 41t436.5 -41v0q-145 151 -262 331q-60 4 -175 4zM0 141l156 -269q145 151 262 331q-228 -18 -418 -62z
M747 896v0q-35 -120 -94 -258q-19 -45 -62 -135q79 -162 175 -300q208 -13 418 -62v0q-288 330 -437 755zM593 503q43 90 62 135q47 111 94 258h-312q35 -120 94 -258q19 -45 62 -135zM1030 -128l156 269q-210 49 -418 62q117 -180 262 -331z" />
    <glyph glyph-name="nongyeyinxing1" unicode="&#xe502;" 
d="M481 569h49q26 0 30 8q3 5 3 11v26v33v137q0 65 -2 65h-38h-39h-18q-2 0 -2 -33v-136q0 -10 -1 -29.5t-1 -35.5t2 -30t17 -16v0zM622 839v-142q0 -13 1.5 -41.5t1 -51t-3.5 -41.5q-1 -12 -19.5 -15t-37 0t-29.5 0q-7 -3 -10 -11t-3 -15.5t1 -19t1 -14.5v-91q2 6 8.5 9
t11 3.5t14 0t11.5 -0.5q8 0 24.5 -1.5t30 -1.5t23.5 3q15 4 15 20q-2 1 -2 9t1 17.5t1 10.5v56v203q93 -44 149 -134t56 -195q0 -133 -88 -236t-218 -120v108v54v25v13q1 3 2 5l1 1q1 0 3 1q3 1 31 -1t49 2t15 19q-2 3 -2 11.5t1 19.5t1 14v94q0 -7 -2.5 -11.5t-8.5 -6
t-10 -2t-13 0t-10 0.5q-8 0 -24 0.5t-28.5 0.5t-23.5 -1q-7 0 -11.5 -3t-6 -10t-1.5 -11.5t0.5 -13.5t0.5 -11v-91q-14 0 -16 1q-4 1 -4.5 1.5t-0.5 7.5v25v47q0 3 1 12.5t0.5 17t-2.5 13.5q-1 6 -5 9.5t-11 5t-12.5 1.5t-13.5 -0.5t-10 -0.5q-8 0 -23 -1t-28 -1t-23 2
q-13 4 -11 18v-107q0 -4 -0.5 -11.5t-0.5 -13.5t1 -11q1 -6 4.5 -9.5t9.5 -5t10.5 -1.5t12 0.5t9.5 0.5h31h15q3 0 4.5 -1t2 -3t0.5 -4v-5v-5v-189q-130 17 -218 120t-88 236q0 105 57 195t150 134v-231q0 -11 -0.5 -32.5t-0.5 -33.5q3 -17 19 -19h58q4 0 15.5 0.5t19 0.5
t16 -3t11.5 -10v104q0 2 0.5 10.5t0 11.5l-1.5 9t-3.5 8.5t-7 5t-11.5 3.5h-46q-11 0 -17.5 2t-9 9t-2.5 12v19v248q-102 -26 -182 -96.5t-121.5 -169.5t-33.5 -206q6 -95 51 -179t113.5 -141t158.5 -84.5t182 -14.5q113 15 203.5 84t139.5 173.5t42 219.5q-8 146 -102 262
t-234 152v0z" />
    <glyph glyph-name="weixin" unicode="&#xe603;" 
d="M669 495q14 0 30 -2q-20 95 -110.5 157.5t-206.5 62.5q-130 0 -222 -77.5t-92 -189.5q0 -124 126 -212l-31 -94l109 55q80 -16 110 -16q14 0 30 1q-10 33 -10 66q0 103 77.5 176t189.5 73zM500 580q18 0 28.5 -11t10.5 -28.5t-10.5 -28.5t-28.5 -11t-32.5 11.5
t-14.5 28.5t14.5 28t32.5 11zM280 501q-18 0 -32.5 11.5t-14.5 28.5t14.5 28t32.5 11t29 -11t11 -28.5t-11 -28.5t-29 -11zM956 250q0 93 -80 160.5t-187 67.5q-112 0 -189.5 -67t-77.5 -161.5t77.5 -161t189.5 -66.5q31 0 94 16l86 -47l-23 78q110 83 110 181zM602 289
q-11 0 -21 10t-10 21.5t10 21.5t21 10q17 0 28.5 -9.5t11.5 -22t-11.5 -22t-28.5 -9.5zM775 289q-12 0 -21.5 10t-9.5 21.5t9.5 21.5t21.5 10q17 0 28 -9.5t11 -22t-11 -22t-28 -9.5z" />
    <glyph glyph-name="minshengyinhang" unicode="&#xe610;" 
d="M517 283l94 -50l-94 -50v-60l236 118l-236 101v-59zM517 742v49h3q54 1 117.5 -6t133 -26t125.5 -47t92 -74.5t36 -102.5h-156q-11 71 -65 120t-127.5 69.5t-158.5 17.5zM423 233l87 53l7 -3v59l-23 10q0 1 -11.5 -0.5t-31 1t-44.5 4.5t-52.5 10.5t-54.5 18.5t-50 28
t-40 40.5t-25 55.5t-3 72q26 71 121.5 114.5t213.5 45.5v49q-60 -2 -118 -9.5t-121 -24.5t-113 -41.5t-88.5 -64.5t-52.5 -89q-3 -13 -3 -17v-23q4 -38 32 -75t75.5 -68t120 -50t156.5 -19l-125 -77l222 -117l15 7v60l-3 -2zM603 534l-88 -52l-6 1v-58l21 -8h19t47 -3.5
t66.5 -11t68.5 -24t62.5 -40.5t40.5 -63t10 -89q-28 -71 -123 -114t-212 -46v-48q60 2 118 9.5t121 24.5t112.5 41.5t88 64t52.5 88.5q3 10 3 17v22q-3 38 -31.5 75.5t-76.5 68t-120 50t-155 19.5l123 76l-221 118l-14 -8v-59l3 2zM509 483l-95 51l95 51v59l-236 -117
l236 -102v58zM509 26v-48h-4q-54 -1 -117 6t-133 26t-126 47t-92.5 74t-36.5 102h158q11 -70 64.5 -119t127 -69.5t159.5 -18.5z" />
    <glyph glyph-name="pufayinhang" unicode="&#xe611;" 
d="M728 655q44 -17 76.5 -51.5t47.5 -79.5q-20 4 -45 4q-42 0 -79 -15v142zM728 112q38 -15 80 -15q89 0 152.5 63t63.5 153v359l-160 159v-360v0v-15v-1q0 -67 -37.5 -121.5t-98.5 -79.5v-142zM591 313v0q0 -90 -63 -153t-152 -63q-42 0 -80 15v143q60 24 98 78.5t38 121.5
v1q0 89 63.5 152t152.5 63q42 0 80 -16v-142q-61 -24 -99 -78.5t-38 -121.5v0zM728 254q-39 -15 -80 -15q-22 0 -45 5q15 -45 48 -79.5t77 -52.5v142v0zM296 513q38 15 80 15q24 0 45 -4q-15 45 -48 79.5t-77 52.5v-143v0zM296 112q-44 17 -77 52t-48 80q22 -5 45 -5
q41 0 80 16v-143zM296 656q-39 15 -80 15q-89 0 -152.5 -63t-63.5 -153v-359l160 -159v360v0v15v1q0 67 37.5 121.5t98.5 78.5v143z" />
    <glyph glyph-name="nanjingyinhang" unicode="&#xe612;" 
d="M708 725q-23 54 -77.5 86.5t-120.5 32.5q-93 0 -158 -63t-65 -153q0 -25 3 -36t7 -13t11 5q92 79 204 79q37 0 72 -9q8 -2 11 -1.5t10 4.5q37 23 96 46q14 6 7 22zM226 660q-58 -6 -106 -48t-68 -105q-29 -87 11 -169t125 -109q24 -8 36 -8q11 -1 14 2t-1 12
q-47 112 -12 219q11 35 30 66q5 7 5.5 9.5t-1.5 10.5q-11 43 -14 106q-1 15 -19 14zM140 181q-14 -58 11.5 -116.5t79.5 -96.5q74 -55 164 -42t142 85q15 21 19 32q4 10 2 14t-12 3q-120 -11 -211 56q-30 21 -53 49q-6 7 -8 8t-11 2q-44 3 -105 19q-14 4 -18 -13zM568 -50
q52 -30 115 -24t116 45q75 54 90.5 143.5t-37.5 161.5q-15 21 -24 28t-13 6.5t-6 -10.5q-27 -118 -119 -184q-29 -22 -63 -35q-8 -4 -10 -5.5t-5 -9.5q-17 -41 -50 -94q-9 -13 6 -22zM920 287q44 38 58 101t-7 125q-28 87 -108 129.5t-165 15.5q-24 -8 -34 -15
q-10 -6 -10.5 -10t8.5 -9q103 -63 138 -170q11 -34 14 -71q1 -9 2 -11t7 -8q34 -28 74 -77q10 -12 23 0zM508 112q-54 0 -102 23q-6 2 -6 8v183q0 11 6.5 13.5t14.5 -5.5l25.5 -25.5l30.5 -30.5l26 -26q4 -4 5 -4t5 4q33 33 102 99.5t103 100.5q4 4 10.5 3.5t8.5 -5.5
q19 -52 19 -96q0 -99 -73.5 -170.5t-174.5 -71.5zM512 603q54 0 102 -22q6 -3 6 -8v-183q0 -11 -6.5 -13.5t-14.5 4.5q-41 42 -82 83q-3 3 -4.5 3t-4.5 -3q-1 -1 -206 -201q-4 -4 -10.5 -3.5t-8.5 6.5q-19 51 -19 95q0 100 73.5 171t174.5 71z" />
    <glyph glyph-name="shanghaiyinhang" unicode="&#xe613;" 
d="M527 458h36l79 -3h11l64 -5l21 -2l49 -6l38 -7l37 -6l11 -3l20 -4l10 -3l19 -4l19 -5l8 -3l17 -4l16 -6l15 -5l7 -3l-494 491l-490 -490l8 3l8 3l9 3l18 5l10 3l10 3l10 2l10 3l21 4l12 3l11 2l12 2l23 4l50 8l10 2l73 8l87 6l79 3h46v1zM533 -66l411 412h-5l-29 2l-19 1
h-71l-66 -3h-9l-36 -3l-20 -1l-27 -2l-26 -2l-8 -1l-8 -1l-8 -1l-8 -1l-15 -2l-14 -2l-13 -2l-6 -1l-12 -2l-12 -2l-10 -2l-10 -2l-10 -2l-4 -1l-8 -3l-7 -2l-3 -1l-3 -1l-3 -2l-8 -4l-9 -5l-6 -4l-4 -3l-4 -5l-3 -5l-2 -5v-3v-5v-2v-2v-1l2 -5l3 -7l1 -1l3 -3l10 -8l5 -4
l5 -3l4 -2l3 -3l3 -2l3 -1l2 -2l1 -1l1 -1l2 -2l5 -7l5 -9l2 -9v-13v-4l-1 -2l-1 -2l-1 -2l-1 -3l-4 -4l-2 -3l-2 -2l-5 -5l-3 -2l-7 -5l-4 -2l-4 -2l-8 -5l-5 -2l-10 -5l-5 -2l-12 -5l-6 -2l-12 -5l-7 -2l-14 -5l-7 -2l-8 -3l-8 -2l173 -174zM510 -106l490 492h-6l-34 2
l-23 2h-85l-79 -4h-10l-44 -4l-23 -1l-33 -3l-30 -2l-10 -1l-10 -1l-9 -1l-9 -1l-18 -3l-17 -2l-15 -2l-8 -2l-14 -2l-14 -2l-12 -3l-12 -2l-12 -3l-5 -1l-9 -3l-8 -3l-4 -1l-4 -2l-3 -1l-10 -5l-11 -6l-7 -5l-4 -3l-5 -6l-3 -6l-3 -6l-1 -4v-6l1 -2v-2v-2l2 -6l4 -8l1 -1
l4 -4l11 -10l6 -4l6 -4l5 -3l4 -3l4 -2l2 -2l3 -2l1 -1l2 -2l2 -2l6 -8l6 -11l3 -11v-16l-1 -4l-1 -2l-1 -3l-1 -3l-2 -2l-4 -6l-2 -3l-3 -2l-6 -6l-4 -3l-8 -5l-4 -3l-5 -3l-10 -5l-6 -3l-12 -6l-6 -3l-14 -5l-7 -3l-15 -5l-8 -3l-17 -6l-8 -3l-9 -2l-10 -3l206 -207z" />
    <glyph glyph-name="zhaoshangyinhang" unicode="&#xe614;" 
d="M952 402h-159l7 -18h153v18h-1zM225 206h244l-124 302zM764 469h181l-2 8l-2 8l-1 2h-184zM476 206h244l-125 302zM874 212l-96 -139h-520l-103 128l225 580l128 -304l121 307l117 -272h188q-42 137 -158 225t-264 88q-90 0 -171.5 -35t-140.5 -94t-94 -140.5t-35 -171.5
t35 -171.5t94 -140.5t140.5 -94t171.5 -35q141 0 254 81t160 209h-62zM810 360l8 -19h133l2 19h-1h-142zM836 299h109l1 7l2 11h-120zM781 427h170l-1 1l-1 9v8h-175zM846 275l8 -18h80l5 18v0h-93z" />
    <glyph glyph-name="zheshangyinhang" unicode="&#xe615;" horiz-adv-x="1025" 
d="M1024 309l-88 -91l-227 216l85 89l73 -70l15 15l-292 279l-14 -15l75 -72l-85 -89l-241 230l88 91l93 -89l89 93l425 -405l-89 -93zM458 460l-240 229l92 96l241 -229zM351 348l-241 230l93 96l241 -230zM246 239l-76 72l-14 -15l292 -279l14 15l-73 70l91 94l227 -217
l-90 -93l-93 89l-99 -103l-425 406l99 102l-93 89l90 93l240 -229zM587 307l227 -216l-93 -96l-227 216zM694 419l227 -217l-92 -96l-227 217z" />
    <glyph glyph-name="zhejiangtailongshangyeyinhang" unicode="&#xe616;" horiz-adv-x="1033" 
d="M778 578l1 1l2 2zM786 479q1 -4 8 -23.5t7 -25.5q-46 11 -49 11q-33 3 -73 2q-51 -1 -77 18q0 1 -16 5q2 -5 12 -32q-21 15 -23 17q-11 9 -13 15q-3 10 -9.5 16.5t-17.5 13.5t-15 10q-36 28 -39 73q-1 4 4.5 10.5t11.5 7.5q50 17 74 19q77 8 148 -44q7 -4 13.5 -11
t14 -15.5t11.5 -13.5zM813 513l-4 -2zM770 528l-11 20q56 -45 86 -105q4 -8 14.5 -26.5t15.5 -29.5q3 -6 5 -12.5t4.5 -15t4.5 -13.5q16 -51 59 -61q46 -11 77 -41q0 -1 6 -10l-2 -3q-54 23 -106 14q-57 -11 -75 -69q-13 9 -22 38q-3 12 -4 27.5t-0.5 26t2 28.5t1.5 26
q2 27 -2 60q-3 18 -13 65zM160 290q28 -34 29 -36q13 -21 -3 -45t-44 -25h-65.5h-65.5q-11 0 -11 11v170q0 12 13 12q24 -1 62 -1h61q15 0 28 -9.5t17 -22.5q9 -30 -18 -51zM58 226h52q17 1 19 17q1 8 -4.5 14.5t-13.5 6.5q-21 1 -45 0q-2 0 -5 -2.5t-3 -4.5v-31zM58 301h45
q8 1 13 5.5t4 11.5q0 5 -4 10t-8 6h-50v-33zM598 376h47q9 1 9 -10v-75q9 6 10 6q2 3 16.5 17.5t22.5 22t19 8.5h48l-7 -10q-34 -37 -44 -46q-8 -8 -2 -18q19 -30 46 -73l7 -14q-45 0 -52 1q-5 0 -11 9q-4 6 -30 48q-10 -8 -15 -13t-8.5 -13.5t-1.5 -17.5q3 -15 -13 -14
q-9 1 -32 0q-11 0 -11 10l1 178l1 4v0zM383 184q-36 0 -40 1q-3 1 -5.5 3.5t-5.5 6.5t-4 6q-43 -14 -47 -15q-13 -3 -27 -1q-15 3 -24.5 13.5t-9.5 23.5q-1 14 8.5 25t25.5 15q9 2 28 6.5t30 7.5l11 9l-3.5 3.5l-4.5 4.5t-4 2q-9 2 -19 0.5t-15 -11.5q-2 -3 -10 -4h-38
q-5 0 -7 2t-1 8q8 34 36 37q45 4 87 0q16 -2 26 -15t11 -30v-3v-2q0 -11 0.5 -42.5t1.5 -50.5zM288 214q15 -1 26 8t11 21q1 10 -9 7q-16 -6 -27 -9q-15 -3 -11 -15q1 -3 3 -5.5t4.5 -4.5zM470 312q28 14 29 14q26 9 48 -6.5t22 -43.5v-39.5v-39.5q0 -7 -2.5 -10t-9.5 -3
q-16 1 -34 0q-11 0 -11 11v19.5t0.5 22.5t0.5 19q1 23 -16 26q-11 3 -18.5 -3.5t-7.5 -18.5q-1 -39 0 -63q1 -14 -13 -13q-12 1 -34 0q-10 0 -10 11v120q0 16 14 15q15 -1 28 0q9 0 13 -3.5t1 -14.5z" />
    <glyph glyph-name="zhongxinyinhang" unicode="&#xe617;" 
d="M512 824q-90 0 -171.5 -34.5t-140.5 -93.5t-94 -140.5t-35 -171.5t35 -171.5t94 -140.5t140.5 -93.5t171.5 -34.5t171.5 34.5t140.5 93.5t94 140.5t35 171.5t-35 171.5t-94 140.5t-140.5 93.5t-171.5 34.5zM512 -16q-109 0 -201 53.5t-146 145.5t-54 201t54 201
t146 145.5t201 53.5t201 -53.5t146 -145.5t54 -201t-54 -201t-146 -145.5t-201 -53.5zM333 628v-583q36 -18 73 -28v495q0 38 -20 69t-53 47zM133 383q0 -91 40 -169.5t110 -132.5v267q-11 17 -30 10q-28 -10 -36 -39l-7 -1q-1 -1 1 -3v-1q-10 0 -11 1q-18 21 -18 68
q0 39 25 68v0q2 -1 3 -3v0l3 1t3 2q7 -32 37 -43q19 -7 30 9v267q-70 -53 -110 -131.5t-40 -169.5zM204 452h0.5h0.5h-1v0zM607 512v-495q37 9 74 28v583q-33 -16 -53.5 -47t-20.5 -69zM672 725q-78 38 -165 38v0q-36 0 -84.5 -11t-80.5 -27q-10 -4 -10 -15q0 -12 12 -16
q52 -16 84.5 -60t32.5 -99v-529q25 -3 46 -3t46 3v529q0 55 32.5 99t84.5 60q12 4 12 16v0q0 11 -10 15zM853 358q-29 -10 -36 -40q-2 -4 -6 -4t-6 2q-24 30 -24 67t24 67q2 2 5 2h1q4 0 5 -4h1q7 -30 36 -40q10 -4 19 0t12 14q0 1 2 5q-10 77 -48.5 144t-98.5 113v-603
q60 47 98.5 113.5t48.5 144.5q-2 4 -2 5q-3 9 -12 13.5t-19 0.5z" />
    <glyph glyph-name="bohaiyinhang" unicode="&#xe618;" 
d="M183 519q3 4 8 10t22.5 22.5t37 29.5t50.5 25.5t63 16t74.5 -5t85.5 -30.5q5 3 13 8t34 17.5t53 22t67 17t78 6.5q127 -5 160 -53q15 -19 11.5 -43t-26.5 -42q-6 4 -18 11.5t-56.5 21.5t-98 19t-144 -5.5t-191.5 -41.5q-6 3 -16.5 7.5t-42 11.5t-61.5 5
q-28 -2 -53.5 -9.5t-37.5 -14.5zM811 212l113 199q0 1 -2 4t-8.5 12.5t-15.5 18t-25 19.5t-35 20t-47 17t-60.5 12.5t-76.5 4.5t-93 -6q-76 -9 -149.5 -33t-120 -48t-88.5 -53t-54.5 -40.5t-18.5 -17.5v0q7 4 20.5 10.5t57.5 21.5t89 23.5t112 8t131 -15.5q54 -13 101.5 -34
t77 -41.5t51.5 -39.5t32 -30zM875 82l144 303q-1 3 -3 7.5t-10.5 18.5t-19.5 27t-31.5 30t-44.5 30.5t-60 26t-77.5 19t-97.5 6.5t-118 -8q-97 -14 -190.5 -50.5t-152.5 -73.5t-112.5 -81.5t-69.5 -61.5t-24 -27v0q10 7 27 17t72.5 32.5t113 35.5t142.5 12.5t167 -23.5
q68 -20 128.5 -52t98.5 -63t66 -60.5t40 -46.5t12 -18z" />
    <glyph glyph-name="beijingnongshangyinhang" unicode="&#xe619;" horiz-adv-x="1039" 
d="M593 -93q134 17 238 103.5t148 213.5v0q36 99 23 211.5t-74 208.5q-67 105 -173 162.5t-224 57.5q-81 0 -130 -13q36 4 98 3q140 -2 252 -84t159 -212q29 -66 29 -138q0 -11 -1 -32v-3h-1q-9 -99 -69 -176.5t-151 -111.5l-4 -1l-10 -4q-2 0 -5 -1t-5 -2l-3 -1
q-37 -10 -74 -12q-39 -2 -77 4q-33 7 -66 21q-99 40 -158 131.5t-54 202.5q3 71 33.5 133.5t81.5 108.5q0 1 -2 1q-3 0 -14 -3q-23 -9 -27.5 -11.5t-6.5 -3.5q-1 -1 -3 -2t-3 -2q-68 -39 -115 -102q0 -1 -1 -2t-1 -2l-6 -8q-4 -6 -5 -7l-3 -4q-3 -5 -6 -11l-1 -1
q-47 -78 -57 -170v-1v-5v-4.5t-0.5 -4.5t-0.5 -5v-3v-15v-25q6 -109 65 -198.5t153 -138.5q122 -56 251 -43v1zM625 679q-57 13 -107 -20t-62 -91q-13 -59 19 -109.5t90 -62.5v-1h1q58 -12 90 -63t20 -110q-11 -49 -49 -81t-86 -34q-1 -1 0 -2q107 -10 194.5 55t110.5 174
q16 77 -7.5 150.5t-80 125.5t-133.5 69v0zM238 694q-23 -9 -43.5 -25.5t-31.5 -28.5t-30 -36q-19 -22 -29.5 -34t-30.5 -26.5t-41 -21.5q38 -11 67 -3q36 8 67 45q76 91 197 129q-50 32 -125 1v0z" />
    <glyph glyph-name="dongyayinhang" unicode="&#xe61a;" 
d="M719 -48v62q45 -18 91 -51l-62 -29q-5 4 -29 18v0zM719 146v80q5 5 18 22l2.5 1t3.5 2q26 10 39 16l23 12l17 9q-30 -84 -103 -142zM719 269q85 32 107 88v54q-22 55 -107 90v-64q22 -11 40 -29q13 -15 12 -26t-15 -25q-4 -4 -12.5 -10.5t-10.5 -7.5q-5 -2 -14 -8v-62z
M719 543v79q73 -56 103 -142l-17 9q-23 13 -36 18l-26 12q-1 0 -3.5 0.5l-2.5 0.5q-3 4 -9 11.5t-9 11.5zM719 754v64q19 8 29 16l62 -28q-35 -27 -91 -52zM511 481q43 0 95 -8q15 -91 -2 -178q-41 -7 -93 -7v-57q42 0 79 5q-22 -61 -54 -88q-15 -10 -25 -10v-204h31v67
q99 -8 177 -49v62q-81 37 -177 44v18q101 10 177 70v80q-43 -50 -105 -75q27 43 41 97q26 5 64 21v62q-21 -10 -51 -21q5 36 5 75t-5 73q28 -7 51 -21v64q-30 12 -64 19q-13 52 -41 98q62 -24 105 -75v79q-79 63 -177 70v19q94 5 177 43v64q-82 -44 -177 -51v67h-31v-204
q7 0 10 -2q14 -5 26.5 -19t18.5 -25t15 -29q2 -4 4.5 -11t4.5 -11q-49 4 -79 4v-56zM410 385q0 39 8 88q52 8 93 8v56q-26 0 -78 -4q19 42 28 56q27 41 50 41v204h-29v-67q-94 7 -178 51v-64q82 -38 178 -43v-19q-100 -7 -178 -70v-79q43 51 104 75q-27 -46 -41 -98
q-34 -7 -63 -19v-64q19 10 28 13q4 2 12 4.5t12 3.5q-5 -36 -5 -73v0q0 -39 5 -75q-36 13 -52 21v-62q37 -16 63 -21q14 -54 41 -97q-61 25 -104 75v-80q75 -60 178 -70v-18q-98 -7 -178 -44v-62q80 41 178 49v-67h29v204q-12 0 -28 13q-4 4 -10.5 11.5t-8.5 9.5
q-18 27 -31 64q39 -5 78 -5v57q-52 0 -93 7q-8 49 -8 90zM304 818v-64q-53 24 -90 52l60 28q10 -6 30 -16zM304 622v-79q-11 -13 -17 -23q-11 -3 -34 -13l-24 -11l-22 -13l-6 -3q30 86 103 142zM304 501q-85 -36 -106 -87v-59q23 -53 106 -86v62q-1 1 -3.5 2.5t-3.5 2.5
q-53 31 -42 57q11 27 49 44v64zM304 226v-80q-73 58 -103 142l16 -9l23 -12q13 -6 39 -16l8 -3q15 -20 17 -22zM304 14v-62l-15 -9l-15 -9l-60 29q48 34 90 51z" />
    <glyph glyph-name="beijingyinhang" unicode="&#xe61b;" 
d="M939 255l4 15l3 14l3 15l3 14l1 8v7l1 8l1 7v8l1 7v8v8v11v10l-1 11l-1 11l-1 11l-1 10l-2 11l-2 10l-2 11l-3 10l-2 10l-3 10l-3 10l-3 9l-4 10l-4 10l-4 9l-4 10l-5 9l-5 9l-5 9l-5 9l-6 9l-6 9l-6 8l-6 9l-7 8l-6 8l-7 9l-8 8l-7 8l-8 8l-8 7l-8 8l-8 7l-8 7l-9 7
l-8 7l-9 6l-9 6l-8 6l-9 5l-9 6l-9 5l-10 5l-9 4l-9 5l-10 3l-9 4l-10 4l-10 3l-10 3l-10 3l-10 3l-10 2l-10 2l-11 2l-10 2l-11 1l-10 2h-11l-11 1h-11h-22h-11l-11 -1h-11l-10 -2l-11 -1l-10 -2l-11 -2l-10 -2l-10 -2l-10 -3l-10 -3l-10 -3l-10 -3l-10 -4l-9 -4l-10 -3
l-9 -5l-9 -4l-10 -5l-9 -5l-9 -6l-9 -5l-8 -6l-9 -6l-8 -6l-9 -7l-8 -7l-9 -7l-7 -7l-9 -8l-8 -7l-7 -8l-8 -8l-7 -8l-7 -9l-7 -8l-7 -8l-6 -9l-6 -8l-6 -9l-5 -9l-6 -9l-5 -9l-5 -9l-4 -9l-4 -10l-5 -9l-4 -10l-3 -10l-3 -9l-4 -10l-3 -10l-2 -10l-3 -10l-2 -11l-2 -10
l-1 -11l-1 -10l-1 -11l-1 -11l-1 -11v-10l-1 -11l1 -11v-12l1 -10l1 -11l1 -11l1 -10l1 -11l2 -10l2 -11l3 -10l2 -10l3 -10l4 -10l3 -10l3 -9l4 -10l5 -10l4 -9l4 -9l5 -10l5 -9l6 -9l5 -9l6 -9l6 -8l6 -9l7 -8l7 -9l7 -8l7 -8l8 -8l7 -8l8 -8l9 -8l7 -7l9 -7l8 -7l9 -6
l8 -7l9 -6l8 -5l9 -6l9 -5l9 -5l10 -5l9 -5l9 -4l10 -4l9 -4l10 -4l10 -3l10 -3l10 -3l10 -3l10 -2l10 -2l11 -2l10 -2l11 -1l10 -1l11 -1h11l11 -1h11h16l15 1l15 1l15 2l15 2l14 2l15 4l14 3l13 4l14 5l13 5l14 5l12 6l13 6l13 7l12 7l9 6l8 5l8 5l7 6l8 5l7 5l6 6l6 6
l6 5l6 6l5 6l5 5l5 6l5 6l3 6l4 6l4 7l3 6l3 6l3 6l2 6l2 7l2 6l1 6l1 7l1 6v7v7v6v7l-1 7l-1 7l-1 5l-2 6l-1 5l-2 6l-2 5l-2 5l-2 5l-3 5l-3 5l-3 5l-3 4l-4 5l-3 4l-4 4l-4 5l-5 4l-4 4l-5 3l-5 4l-5 4l-5 3l-6 4l-5 3l-6 3l-6 3l-7 3l-6 3l-7 2l-7 3l-7 3l-8 2l-7 3
l-20 6l6 4l6 4l6 4l5 4l5 5l5 4l4 5l4 5l4 5l3 5l3 6l2 5l3 6l2 6l1 6l1 6l1 8v6v8l-1 7l-1 6l-2 7l-2 7l-3 7l-3 6l-3 7l-5 6l-4 7l-6 6l-5 7l-7 6l-6 6l-8 6l-7 6l-8 6l-8 5l-8 5l-8 5l-9 4l-9 4l-9 4l-10 3l-9 4l-10 2l-11 3l-10 3l-11 2l-11 2l-13 1l-12 2l-14 1l-13 1
l-13 1l-14 1l-14 1h-14h-14h-15h-14h-15l-16 -1l-15 -1l-16 -1l-15 -1v-136l12 1l13 2l13 1l12 1l13 1h13l13 1h26l13 -1l13 -1l13 -1l13 -1l14 -1l13 -2l13 -1l11 -2l11 -2l9 -2l9 -3l8 -3l8 -3l7 -3l6 -3l3 -2l3 -2l2 -2l3 -2l2 -2l2 -2l2 -2l2 -2l1 -2l2 -3l1 -2l1 -3
l1 -2l1 -3v-2l1 -3v-5l-1 -2v-3l-2 -6l-3 -6l-2 -3l-2 -3l-2 -2l-3 -2l-3 -2l-4 -1l-3 -2l-4 -1l-4 -1h-4l-5 -1h-10l-5 1h-5l-6 1l-16 2l-16 2l-15 1l-16 1l-15 1h-15l-15 1h-14h-15l-14 -1h-15l-14 -1l-14 -1l-14 -1l-14 -2l-13 -2v-139l19 3l19 2l18 1l18 2h18l18 1h17
h17h16l17 -1l15 -1l16 -1l15 -2l15 -2l15 -2l14 -3l11 -2l11 -3l10 -2l9 -3l9 -4l8 -3l3 -2l4 -2l3 -2l3 -2l3 -2l3 -2l3 -2l2 -2l3 -3l2 -2l1 -3l2 -2l2 -3l1 -2l2 -3v-3l1 -3l1 -3v-2l1 -4v-2v-3v-2v-3l-1 -2v-3l-1 -2l-1 -3l-1 -2l-1 -3l-1 -2l-2 -3l-3 -5l-4 -5l-3 -4
l-3 -2l-4 -3l-3 -3l-3 -3l-4 -2l-4 -3l-4 -2l-4 -2l-4 -3l-4 -2l-5 -2l-5 -2l-5 -1l-4 -2l-6 -2l-5 -1l-6 -2l-5 -1l-6 -1l-12 -2l-13 -2l-13 -1l-15 -1l-14 -1h-24l-8 1h-8l-9 1h-8l-7 1l-8 2l-8 1l-8 1l-7 2l-8 2l-7 2l-7 2l-8 3l-7 3l-7 2l-7 3l-7 4l-7 3l-7 3l-6 4l-7 4
l-7 4l-6 4l-7 5l-6 4l-6 5l-7 5l-6 5l-6 6l-5 5l-6 6l-6 6l-6 6l-5 6l-5 6l-5 6l-5 6l-5 7l-4 6l-5 7l-4 6l-4 7l-3 6l-4 7l-3 7l-3 7l-4 7l-3 7l-2 7l-3 7l-2 8l-2 7l-2 7l-2 8l-1 8l-2 7l-1 8l-1 8l-1 8v8l-1 8v8v17v8l1 8v8l1 8l1 8l1 7l2 8l1 8l2 7l2 8l2 7l2 7l3 8l2 7
l3 7l4 7l3 7l3 7l4 7l3 7l4 6l4 7l5 6l4 7l5 6l5 6l5 6l5 6l5 6l6 7l6 5l6 6l6 6l6 5l6 5l6 5l6 5l7 5l6 4l7 4l6 5l7 4l7 3l6 4l7 3l7 4l7 2l7 3l8 3l7 3l7 2l8 2l7 2l8 2l7 1l8 1l8 2l7 1l9 1h8l8 1h8h8h8h8l9 -1h8l7 -1l8 -1l8 -2l8 -1l7 -1l8 -2l7 -2l8 -2l7 -2l7 -3
l7 -3l7 -3l7 -2l7 -4l7 -3l7 -4l7 -3l6 -4l7 -5l6 -4l7 -4l6 -5l6 -5l6 -5l6 -5l6 -5l6 -6l6 -6l6 -5l5 -6l6 -6l5 -6l5 -6l5 -7l4 -6l5 -6l4 -7l4 -7l4 -6l4 -7l3 -7l4 -7l3 -7l3 -7l3 -7l3 -7l2 -7l2 -8l2 -7l2 -7l2 -8l2 -8l1 -7l1 -8l1 -8l1 -8l1 -8v-8l1 -8v-8l-2 -35
l7 -4l7 -4l7 -5l6 -4l6 -5l7 -5l6 -5l6 -5l6 -5l6 -5l6 -6l6 -5l5 -6l5 -6l6 -7z" />
    <glyph glyph-name="hangzhouyinhang" unicode="&#xe61c;" 
d="M230 741l1.5 1.5t3.5 3t5.5 3t7.5 2.5q-3 -11 -15 -14q11 0 14 -9q-8 -7 -18 5q6 -12 -6 -19q-7 4 1 17q-2 -1 -4 -3t-6.5 -4.5t-8.5 -1.5q0 6 16 13q-12 -1 -15 7q6 7 18 -2q-7 12 4 21v0q8 -7 2 -20zM915 465q0 11 2 17h-2.5t-5 -0.5t-4.5 -1.5t-1 -4q0 -2 4.5 -4.5
t6.5 -6.5zM536 586q2 3 2 4q-1 -1 -4 -2zM833 657q2 6 5.5 9t6.5 1t0.5 -5.5t-8.5 -6.5q5 2 9.5 1.5t4 -4.5t-4.5 -4.5t-10 3.5q4 -4 5 -8.5t-2.5 -5.5t-5.5 2.5t-2 9.5q-1 -6 -4.5 -9t-6 -1.5t-2.5 3.5t2.5 4.5t7.5 5.5q-4 -2 -7.5 -2t-5 1t-1.5 3q1 4 5.5 4t9.5 -2
q-3 2 -4 6.5t3 6.5q2 1 3.5 -0.5t2.5 -4t-1 -7.5zM986 505q6 6 13 7t10 -3q5 -7 -8 -9q-6 -1 -11 0q9 -1 14.5 -5t3.5 -9q-3 -4 -9.5 -1.5t-12.5 10.5q4 -8 2.5 -14t-7.5 -5t-6.5 6.5t4.5 13.5q-6 -6 -13 -7.5t-9 1.5q-8 9 9 11q4 1 10 0q-7 1 -12 3.5t-6.5 5t0.5 4.5
q2 4 9 1.5t13 -9.5q-4 4 -2 11t8 6q5 -1 5.5 -6t-5.5 -12zM941 575q2 8 6.5 11.5t8.5 1.5q4 -3 0.5 -7.5t-11.5 -7.5q7 2 13 1t5.5 -5.5t-6 -5.5t-13.5 4q6 -5 7 -10.5t-4 -7.5q-4 -1 -7 3.5t-2 12.5q-1 -8 -5.5 -11.5t-8 -2t-3.5 4t3 6t11 6.5q-6 -2 -10.5 -2t-6.5 1.5
t-2 4.5q1 4 7 4.5t13 -3.5q-5 3 -6 9t4 8q2 1 4.5 -0.5t3 -5t-0.5 -9.5zM732 657q9 8 18 10.5t12 -3.5q5 -7 -4 -11t-22 -3q12 -2 19.5 -7t3.5 -12q-4 -6 -12.5 -3t-15.5 15q4 -11 1.5 -19.5t-10 -7.5t-8 9t7.5 19q-8 -9 -18 -11.5t-12 2.5q-2 4 -1.5 8t8 6.5t19.5 1.5
q-9 1 -15.5 4.5t-8 7t0.5 6.5q4 5 13 1.5t16 -12.5q-5 6 -2 16t11 9q4 -1 6 -4.5t0.5 -9.5t-7.5 -12zM544 790q1 6 5.5 9t7.5 1q9 -4 -5 -11q-2 -1 -4 -1q7 2 13 1t6 -5q-1 -3 -3.5 -4t-7 -0.5t-9.5 3.5q5 -3 7 -6t1.5 -5.5t-3.5 -3.5q-4 -1 -7 3t-3 11q-1 -7 -5.5 -10
t-7.5 -1q-10 4 3 11l6 2q-6 -1 -10 -1t-6.5 1.5t-2.5 3.5q0 3 6 3.5t13 -2.5q-4 2 -6 7t3 7q4 0 7 -3.5t2 -9.5zM387 718q-1 6 -12.5 14t-23.5 9q8 3 13.5 4.5t8.5 0.5h2q6 -2 12 -11t9 -8l8 6l-1 -10q0 -3 5 -2.5t12 0t10 -4.5q8 -7 9 -26q-6 12 -20 18.5t-21 1.5
q-1 -1 -1.5 -4t-0.5 -6l1 -2q-7 8 -19 11q10 4 9 9zM472 642q4 11 11.5 16.5t13.5 2.5q13 -7 -8 -19l-10 -4q11 4 21.5 2.5t9.5 -8.5t-10.5 -8t-22.5 6q10 -8 11.5 -16.5t-6.5 -10.5q-7 -2 -11.5 4.5t-2.5 19.5q-3 -12 -11 -17.5t-13 -3.5q-15 6 2 18q6 4 15 7
q-10 -3 -17.5 -3t-11 2.5t-2.5 5.5q1 7 11 7.5t22 -4.5q-8 5 -10 13.5t7 11.5q7 2 11.5 -4t0.5 -18v0zM161 621q1 6 4.5 9t5.5 1q4 -3 1.5 -6.5t-8.5 -6.5q5 2 10 1t4.5 -5t-4.5 -4.5t-10 4.5q5 -5 6 -9.5t-3 -5.5q-3 -2 -5 2t-2 11q-1 -6 -4 -9t-6 -2q-10 6 7 14
q-7 -2 -11 -1t-3.5 4.5t5 3.5t9.5 -3q-4 3 -5 8t3 6q1 1 3 0t3 -4.5t0 -7.5zM75 600q0 7 3.5 11t7.5 2t2 -6.5t-9 -8.5q6 3 11.5 3t6.5 -5q0 -2 -2 -3.5t-6.5 -1.5t-9.5 3q5 -3 7.5 -6.5t2 -6t-2.5 -3.5q-4 -2 -7 2t-4 11q0 -7 -3.5 -10.5t-6.5 -2.5t-4 3t1 5.5t8 7.5
q-7 -4 -12 -3t-5 4q-1 4 4.5 5t12.5 -1q-5 2 -7 7t2 7q3 2 6.5 -1.5t3.5 -11.5zM164 567q4 10 11.5 14t12.5 1q11 -8 -9 -17q-4 -2 -9 -3q11 2 20 -0.5t7 -8.5q-1 -7 -10 -6.5t-19 8.5q8 -8 9 -16.5t-6 -8.5q-7 -2 -10.5 5t-1.5 19q-3 -11 -10.5 -15t-11.5 -1q-14 8 6 17
q4 2 11 4q-9 -2 -15.5 -1t-10 4t-2.5 6q2 5 11 4.5t19 -6.5q-7 5 -8 13.5t7 10.5q6 1 9.5 -5t-0.5 -18zM59 477q-5 0 -14.5 -10.5t-11.5 -21.5q-3 7 -3.5 13t-0.5 7l1 2q1 4 7 7.5t11 6.5t5 6l-5 8l9 -2q3 -1 3.5 4.5t2 12t4.5 8.5q1 1 3 2t9 2.5t15 1.5q-12 -5 -20 -17.5
t-4 -20.5q1 -1 3.5 -2t5.5 -1h2q-9 -5 -14 -17q1 0 0 3t-3 5.5t-5 2.5zM614 685q-1 1 -9 -1.5t-15 -5.5l-7 -3l7 16q2 3 12 3h11v7l6 -4q1 0 6.5 6t10.5 6q11 -6 20 -8q-31 -4 -30 -14l5 -8l-15 -5v0q1 9 -2 11zM876 668q11 -13 25 -18t20 -12q1 7 -11 27q19 -12 22 -17
t-1 -16q-2 -3 -1 -3.5t4 -0.5h6.5t7.5 -1.5t6 -4.5q-3 0 -5.5 -0.5t-6.5 -3t-7 -3.5q-9 -4 -21 -2t-15 -3l-3 8q16 3 17 8q1 1 -8 3.5t-18.5 12t-10.5 26.5zM363 645q11 -1 16 3t2 9t-9.5 3t-11.5 -9q5 7 5 14t-7 8q-5 0 -6.5 -6.5t2.5 -15.5v0q-3 6 -7 9.5t-7 3.5t-5 -2
q-1 -1 -1 -3q-6 -2 -9 -7q3 5 2.5 10t-6.5 4q-4 0 -4.5 -4.5t3.5 -9.5q-4 5 -9 6.5t-7 -1.5t3 -6t10 -3q-5 0 -8.5 -2t-4.5 -4t1 -4t6.5 -0.5t8.5 7.5q-4 -8 -2.5 -11.5t7.5 -3.5q3 1 3.5 5t-3.5 10q4 -4 7 -6q-2 -3 0 -6q2 -5 8.5 -3t12.5 10q-5 -7 -5.5 -13t2 -8t6.5 -2
t5.5 6.5t-2.5 15.5q6 -9 12 -12t9 1q3 5 -2 10t-15 7zM341 644q-5 4 -13 4q6 1 10 3q6 -5 12 -5q-5 0 -9 -2zM544 677q1 -3 -1.5 -6.5t-6.5 -5.5l-3 -2l25 -12q-1 11 3 15q11 14 51 -17q-6 16 -13 31q-5 6 -19 5t-16 1l-1 11q-8 -5 -9 -8q-1 1 -12 11.5t-18 11.5
q-13 -7 -28 -10v0q43 -11 48 -25zM727 724q6 3 11 2.5t6 -4.5q1 -5 -4.5 -5.5t-12.5 3.5q6 -3 9 -7.5t0 -7.5q-4 -2 -7.5 1t-5.5 11q1 -7 -2.5 -11t-7.5 -2q-9 5 6 15q-7 -3 -12 -2.5t-6 3.5t0.5 5t6 1.5t10.5 -2.5q-5 2 -7.5 5t-3 5t1.5 4q3 2 7 -1.5t6 -10.5q-1 5 2.5 9.5
t7.5 2.5q2 -1 2.5 -3.5t-1.5 -5.5t-6 -5zM193 636q8 -18 21 -25t23 -6.5t11 -1.5q0 -2 -4 -5.5t-9 -5.5l-4 -3l7 -7q4 6 16 8t21 9q2 2 5.5 6t6 5.5t6.5 1.5q-4 3 -9 3t-8.5 -1t-6.5 -2t-4.5 -0.5t-0.5 4.5q2 12 -3.5 16.5t-29.5 11.5l3 -2.5t5 -4.5l5 -5t5 -6.5t3 -6.5
q-8 6 -25 6.5t-34 10.5zM512 11q0 -22 -10.5 -37.5t-30.5 -15.5q-22 0 -33 15.5t-11 37.5t11 37.5t33 15.5q20 0 30.5 -15.5t10.5 -37.5zM412 -51h14v23h1q11 -27 44 -27q27 0 41.5 19t14.5 47t-14.5 47t-41.5 19q-33 0 -43 -27v0v71h-16v-172v0zM631 -3q0 -16 -12 -27
t-32 -11q-11 0 -19.5 6.5t-8.5 16.5q0 13 7 20.5t14.5 10t22.5 4.5q3 1 5 1q19 4 21 8h1zM552 55q21 8 46 8q31 0 31 -17q0 -7 -8 -10t-31 -7q-47 -6 -47 -44q0 -18 12.5 -29t30.5 -11q30 0 45 25v-21h15v88q0 40 -46 40q-13 0 -25 -2.5t-17 -4.5l-6 -2v-13zM139 -51h27v73
q0 14 8.5 23.5t21.5 9.5q24 0 25 -28v-78h27v85q0 21 -11.5 32t-32.5 11q-24 0 -37 -15h-1v59h-27v-172zM277 52h68l-70 -84v-19h110v21h-73l70 84v20h-105v-22zM670 -51h16v72q0 19 10.5 31t28.5 12q32 0 32 -38v-77h15v80q0 24 -10.5 36t-35.5 12q-13 0 -24.5 -7
t-15.5 -18v0v21h-16v-124v0zM795 -51h15v47l25 20l49 -67h20l-57 78l53 46h-20l-70 -60v108h-15v-172zM566 571q-13 -5 -19 4q5 3 6 10q4 -11 13 -14zM587 592q-11 -1 -23 3q15 -13 11 -19q8 8 12 16zM290 470q-5 1 -11 6q3 -11 2 -12q-3 -3 -9 2q-1 2 -3 8q-2 -2 -7 -3.5
t-9 1.5q0 2 2 3.5t5.5 3l3.5 1.5q-5 -1 -13 6q-2 2 1 3q8 3 16 -3l-1.5 3t-1.5 4.5t2 4.5l2 1q3 0 6 -3q4 -3 3 -8l7 4q6 3 7 -2q0 -2 -2 -3l-6 -4q15 -6 9 -12q-1 -1 -3 -1zM967 426l-13 19q-2 3 -14 0t-14 -3q-2 2 -7 2l-5 7q-1 -4 -6 -9q-10 -4 -20 -4t-9 9q1 12 15 10
q11 -2 17 3q1 1 2.5 1.5t2.5 1.5q3 -8 9 -5q6 4 5 19q2 -6 10 -11.5t11 -1.5t-2 10.5t-13 9.5q2 0 5.5 0.5t9 3t4.5 6.5q-2 7 -11 5t-12 -5q3 5 2.5 13.5t-5.5 9.5q-6 1 -7.5 -6.5t0.5 -15.5q-4 10 -11.5 14.5t-11.5 0.5q-3 -4 2.5 -11t11.5 -9q-9 -2 -20 -9t-20 -6
q7 4 9.5 10.5t-1.5 11.5q-3 4 -11 1t-12 -13q0 7 -3.5 10t-6.5 1t-3 -7.5t-1 -6.5q1 1 2 1q15 -1 -1 -20q-2 -3 -6 -6q9 8 18 10.5t11 -3.5t-6 -11t-22 -3q12 -3 16 -9t-1 -11q-6 -5 -12 -1.5t-10 15.5q2 -11 -2.5 -18.5t-10.5 -7.5q-14 -1 -4 14q3 6 10 13q-7 -6 -13.5 -9
t-10.5 -2.5t-5 3.5q-1 5 7.5 9.5t20.5 5.5q-8 0 -13 6.5t1 12.5q5 5 11.5 1t7.5 -15v3q0 8 3 14q10 16 5 29q-2 5 -6.5 7.5t-8 2.5h-4.5q-7 -3 -13 -9q-3 -4 -5 5q-1 4 1 6.5t4 3t6.5 1t6.5 1.5l2 -8q5 7 21.5 3t29.5 -1q5 2 11 5t7.5 3t9.5 -1q-3 5 -8.5 7.5t-10 3l-9 1
t-5.5 1.5t1 5q9 14 5 22t-29 27l2.5 -4.5t3.5 -7.5t3.5 -8.5t2.5 -9t-1 -9.5q-6 11 -25 19.5t-34 29.5q0 -16 5 -28t12 -18t14 -9.5t12 -5.5t4 -4q-2 -5 -19 -7q0 1 -1 4q-8 17 -22 21q-17 5 -29 -10q-11 -14 -30 -8q-12 3 -7 11q2 3 8 3t8 2l-2 3t-6 3q7 1 8 4q-5 0 -6 3
q5 2 5 4q0 4 -10 7q4 4 2 7.5t-6 1.5q-2 0 -9.5 -3.5t-11.5 -3.5q14 9 21 23q-5 1 -7 3t-0.5 4.5t4.5 2.5q-8 -1 -18 -13t-14 -12q9 17 7 32q-12 -5 -16 -25q0 -5 -2.5 -5t-3.5 4q-3 16 -13 22q-6 -6 -4 -19q-6 13 -12 16q-6 -7 -9 -14.5t-3 -11.5v-5q7 10 15 7
q11 -6 -8 -16l-6 -2q9 3 16.5 2t6.5 -7q0 -5 -7.5 -6t-17.5 5q8 -6 9 -12.5t-5 -8.5t-9 3.5t-2 15.5q-2 -9 -8 -13.5t-10 -3.5q-13 6 5 16q3 2 8 4q-7 -2 -13 -2.5t-9 1.5t-2 5q1 5 8.5 5.5t16.5 -3.5q-5 3 -7 10t5 9v0q-15 22 -32 19q-5 0 -9 -6q-3 11 -29 5q5 6 7.5 15.5
t-2.5 11.5t-10 -5t-6 -18q-3 11 -10 17t-11 3q-5 -2 -2.5 -11t10.5 -15q-22 2 -27 -5t3 -12q-10 3 -13 -5q-10 2 -10 -9q-1 -7 -4 -7q-4 0 -2 3q6 14 3 25q-20 -8 -17 -34q0 -3 -2 -4q-1 2 -2 3q2 20 -11 36q0 -1 -0.5 -3t-1.5 -2q-1 5 -7 6q2 -7 1 -19t3 -19q-8 2 -11.5 13
t-8.5 14q-1 -6 -6.5 -8t-9.5 1q8 1 10 7q-3 3 -12 5q7 1 11 8q-5 -1 -6 2.5t3 6.5q-5 1 -8 -1q1 3 1 5q-3 0 -5 -3q2 4 1 7q-4 -1 -7 -7q1 5 -1 7q-7 -3 -9 -15l-3 7q-2 -2 -4 -9q-1 5 -2 6q-5 -14 3 -25q0 -1 3 -3.5t3 -4.5q1 -6 -4 -10.5t-11 -5.5l-6 -2q12 13 11 26
q-8 -2 -14 -10q5 13 3 20q-9 -5 -11 -14q-2 8 -4 12q-4 7 -16 5t-16 -15q-1 2 -5 4t-5 1q-1 -8 6 -18q-8 12 -18 13q1 -11 12 -21q-11 8 -18 5t-8 -9q-1 7 -3.5 12t-5.5 7l-2 2q-9 -14 -8.5 -23t5.5 -14q-2 -11 -10 -7q-7 4 -2 9q4 6 -4 8q-5 2 -13 -4q9 8 4 14q-7 7 -12 -2
q-2 -3 -2 -9q-2 12 -11 11q-9 -2 -6 -10q1 -5 8 -8q-13 5 -17 -3t6 -10q4 -1 10 1q-3 -3 -4 -7.5t3 -7.5q4 -2 7 2t4 9q3 -13 17 -8q3 2 5.5 0t2.5 -4q0 -1 -1.5 -2.5t-4.5 -2t-9 1.5q4 -11 -4.5 -14.5t-13.5 4.5q-2 3 -8.5 5.5t-11.5 3.5l-5 1q1 -5 -3.5 -12.5t-10 -10.5
t-10.5 1q-1 2 -0.5 4.5t2.5 4.5l2 2q6 8 -7 11q-17 3 -18 -8q-7 3 -14 0q5 3 7.5 10t-1.5 9q-5 3 -10 -2.5t-6 -11.5q0 9 -4.5 15t-9.5 3q-4 -3 -2 -10t7 -11q-19 9 -22 -2q-1 -5 6.5 -7.5t14.5 -0.5q-6 -6 -7 -13t4 -9q12 -4 15 14q0 -6 3 -10q-9 -13 -13 -15
q-5 -2 -11.5 -4t-9 -3.5t-1.5 -5.5q0 -3 3.5 -3.5t9.5 1.5t11 7q10 10 15 0q5 -11 -6 -18q-3 -1 -16 2q-13 4 -13 -5t13 -15l396 -275l369 262q6 4 13 10l23 -3q-1 1 -1.5 2.5t-2.5 5.5t0 5q10 19 48 6zM343 523v0q0 -2 -1 -4l10 -2q1 -1 2.5 0t2.5 0q3 0 2 -2.5t-4 -1.5
q-1 0 -2 1.5l-1 1.5l-10 2q-1 -3 -5 -4l6 -7q1 -1 2.5 -1t2.5 -1t1 -2t-2 -2t-4 1v2.5v1.5l-6 7q-4 -2 -7 -2v0v-8q0 -1 1 -2t1 -2t-1 -2t-2 -0.5l-2 1t-1 1.5t1.5 2t1.5 2v9q-4 0 -7 2l-6 -7q-1 -1 -0.5 -2.5t-0.5 -1.5q-2 -3 -4.5 -1.5t-0.5 3.5q1 1 2.5 1.5t2.5 0.5l6 7
q-3 2 -4 5l-10 -3q-1 0 -1.5 -1t-1.5 -2q-3 -1 -4 1.5t2 3.5q1 0 2.5 -0.5t2.5 -0.5l10 3q-1 1 -1 2v1q0 1 1 3l-10 2q-1 1 -2.5 0.5t-2.5 -0.5q-3 0 -2 2.5t4 1.5q1 0 2 -1.5l1 -1.5l10 -3q2 3 4 5l-6 7q0 1 -1.5 1t-2.5 1q-3 2 0 4q3 1 5 -1v-2.5v-1.5l6 -7q3 2 7 2v8
q0 1 -1 2t-1 2t0.5 2t2 0.5t2.5 -1t1 -1.5t-1.5 -2t-1.5 -2v-8q4 0 7 -2l6 6q1 1 0.5 2.5t0.5 1.5q1 3 4 1t1 -3q-1 -1 -3 -1.5l-2 -0.5l-6 -7q3 -2 4 -5l10 3q1 0 1.5 1t1.5 2q3 1 4 -2t-2 -3q-1 0 -2.5 0.5t-2.5 0.5l-9 -3v-2zM443 527q-7 2 -14 8q0 -1 1.5 -5t1.5 -5.5
t-1 -4.5q-4 -4 -11 3q-2 2 -5 10q-2 -2 -8 -4.5t-11 1.5q-1 3 2 5t7 3.5t5 2.5q-3 -1 -9.5 2t-8.5 5q-3 2 2 4q10 4 21 -4q0 1 -2.5 4.5t-2 5t2.5 5.5l3 2q4 0 8 -4t3 -11l9 6q6 3 9 -1q1 -3 -2 -6l-8 -5q19 -7 12 -15q-1 -1 -4 -2zM526 527q-3 -1 -4 1v0q-1 1 -0.5 2.5
t-0.5 1.5l-4 7q-3 -2 -6 -2v-8q0 -1 0.5 -2t1.5 -2v0q0 -3 -3 -3v0q-2 0 -2 3v0q0 1 1 2t1 2v8q-3 1 -6 3l-5 -7v-2.5v-2.5q-2 -2 -4 -0.5t0 3.5q0 1 1.5 1.5l1.5 0.5l6 7q-3 2 -4 5l-8 -3q-1 0 -1.5 -1t-1.5 -2q-3 -1 -3 2h-1q0 3 3 3q1 0 2 -0.5t2 -0.5l8 3v3v3l-8 2
q-1 1 -2 0.5t-2 -0.5q-3 0 -2 2.5t3 1.5q1 0 1.5 -1.5t1.5 -1.5l8 -2l4 4l-5 7q-1 1 -2 1t-2 1q-2 2 0.5 3.5t3.5 -0.5q1 -1 0.5 -2.5t0.5 -1.5l5 -7q2 2 5 2v8q0 1 -0.5 2t-1.5 2q0 3 3 2.5t2 -2.5q0 -1 -1 -2t-1 -2v-8q4 -1 6 -2l5 6v2.5v1.5q2 3 4 1.5t0 -3.5
q0 -1 -1.5 -1.5l-1.5 -0.5l-5 -7q2 -2 3 -5l8 3q1 0 1.5 1t1.5 2q3 1 3 -2q1 0 1 -1q0 -2 -3 -2q-1 0 -2 0.5t-2 0.5l-7 -3v-2q0 -2 -1 -4l8 -2q1 -1 2 -0.5t2 0.5q3 0 2 -2.5t-3 -1.5q-1 0 -1.5 1.5t-1.5 1.5l-8 2q-1 -3 -4 -4l5 -7q1 -1 2 -1t2 -1q2 -2 0 -4zM576 508
q1 -2 3 -4t4 -3l2 -1l-18 -10l-2 11l-2 2q-8 1 -17 -3.5t-14 -9.5l-5 -6q2 16 6 22q2 3 8.5 4t12 1.5t5.5 1.5l-1 9l8 -4q3 0 7.5 8.5t9.5 9.5q8 1 26 -4q-15 -2 -25 -9.5t-8 -14.5zM763 487q-9 -5 -22.5 -4.5t-15.5 -4.5l-5 8q18 4 19 9q0 1 -9.5 2.5t-21 9.5t-13.5 25
q13 -12 28.5 -15t22.5 -9q0 7 -14 25q21 -10 25 -14.5t0 -15.5q-2 -4 2 -4t11 1t13 -5q-4 1 -6.5 0t-6.5 -4t-7 -4zM182 457q-4 -1 2 -16q-8 0 -13 -1q6 15 -2 19q-8 3 -22 -1.5t-18 -2.5q5 1 12.5 8.5t12.5 6.5q2 0 8.5 -3t7.5 -3q0 8 1 9q1 -1 3.5 -4.5t2.5 -4t3 0t8 1.5
t10 0t11 -8.5t6 -12.5q-7 6 -15 9.5t-12 3t-6 -0.5zM194 506q-11 15 -2 16q2 1 4 -1q4 -3 7 -11q0 1 0.5 4.5t1.5 5.5t3 3q5 0 7 -8q1 -2 -1 -9q3 1 9.5 -0.5t7.5 -6.5q-2 -2 -3 -2t-4 1t-9 -1q5 0 8 -6t-1.5 -8.5t-8.5 1t-5 10.5q3 -11 -5 -13q-3 0 -5.5 2t-2.5 5q0 7 2 10
q-10 -2 -14 6q-1 4 3 4z" />
    <glyph glyph-name="zhifubao" unicode="&#xe61d;" 
d="M627 254q-60 -72 -123 -108.5t-147 -36.5q-87 0 -140 46.5t-45 113.5q2 20 8 38.5t21.5 39t38.5 35t61.5 22t88.5 2.5q21 -1 42 -4.5l33 -5.5t35.5 -8.5t28 -8l34.5 -11.5t34 -12q26 45 47 115h-330v33h163v57h-198v38h198v85q3 12 17 12h83v-97h210v-35h-213v-58h173
q-22 -94 -70 -175q57 -19 265 -82v437q0 53 -37 89t-88 36h-603q-52 0 -88.5 -36.5t-36.5 -88.5v-605q0 -52 37 -88.5t88 -36.5h606q52 0 88.5 37t36.5 88v30q-16 8 -143 64t-175 79v0zM207 276q-3 -13 1.5 -30.5t17.5 -36t44 -31t74 -12.5q56 0 110.5 33t99.5 92
q-125 63 -235 63q-47 -2 -76 -25.5t-36 -52.5z" />
    <glyph glyph-name="jingshi" unicode="&#xe61e;" 
d="M911 105l3 5l-351 597q-13 38 -51 38t-51 -38l-353 -602l2 -5q-8 -12 -8 -23q0 -21 14 -35t35 -14h717q21 0 36 15t15 36q0 11 -8 26zM553 563l-15 -281h-52l-15 281h82zM512 102q-21 0 -36 15t-15 36.5t15 36.5t36 15t36 -15t15 -36q0 -23 -14.5 -37.5t-36.5 -14.5z" />
    <glyph glyph-name="pinganyinxing" unicode="&#xe61f;" 
d="M653 500q5 1 47 1q9 0 10.5 1.5t0.5 10.5q-1 4 -4 4h-62v-8q-1 -5 1 -7t7 -2zM704 481h-45q-12 0 -13.5 -2.5t-0.5 -14.5h59q7 -1 7 8t-7 9zM636 269q6 -2 25 1q8 1 8 10t-8 11q-1 0 -15 2v-1v0h-9q-7 0 -5 -6q0 -2 -0.5 -6.5t0 -7t4.5 -3.5zM724 254h31q-2 2 -7 15
t-9 20q-2 -6 -7 -17.5t-8 -17.5zM665 256q-1 0 -16 2v-0.5v-0.5h-12q-6 0 -5 -5q0 -2 -0.5 -6.5t0 -7.5t3.5 -4q7 -2 30 1q8 0 8 10q1 9 -8 11zM419 455h-62h-13q-2 -15 0 -19.5t14 -10.5q21 -10 27.5 -9.5t27.5 10.5q14 7 13 22q0 7 -7 7zM512 896q-139 0 -257 -68.5
t-186.5 -186.5t-68.5 -257t68.5 -257t186.5 -186.5t257 -68.5t257 68.5t186.5 186.5t68.5 257t-68.5 257t-186.5 186.5t-257 68.5zM870 539h47h54q9 0 9 -9q0 -15 -1.5 -16t-16.5 -1h-49.5h-49.5q-9 0 -9 9v8v5t2 3t2.5 0.5t4.5 0t7 0.5zM767 496q3 4 14 17.5t17 21.5
q5 6 11 5h25l1 -2q-17 -21 -19 -23q-6 -7 -6 -8q-7 -14 -20 -17t-26 1zM541 538q1 2 4 2h27q-2 -5 -7 -15q29 0 32 1q9 0 8 -9v-7q1 -7 -7 -7h-20.5h-19.5t-9 -5q-4 -4 -10 -5h-23zM108 248h-31q-6 0 -6 -6v-5v-6q1 -5 -1 -7t-8 -2q-8 0 -8 8q1 3 1 33.5v34.5q-1 7 6 7
q6 -1 23 -0.5t24 -0.5q13 0 20.5 -8t6.5 -22q0 -25 -27 -26zM165 263v-35q1 -7 -7 -6h-2q-7 0 -7 6v71q0 6 7 5h3q7 1 6 -6v-35zM162 400v-30q0 -8 -8 -8q-9 1 -18 0q-7 0 -7 7v12v12q0 8 -7 7h-75q-7 0 -8.5 1.5t-1.5 8.5q0 12 1.5 13t13.5 1h69q8 0 8 9v73q0 9 -8 8h-33.5
h-34.5q-5 0 -7 2t-2 7q0 11 2 12.5t12 1.5h178q7 0 8.5 -1.5t1.5 -8.5v-2v-2q1 -9 -8 -9h-34h-34q-8 1 -8 -8v-73v-8l8 -1q62 0 75 1q9 0 9 -10q0 -11 -2 -13t-13 -2h-68h-9zM55 498q25 0 30 -1q3 0 5 -3q9 -19 25 -49v-4h-30q-2 0 -4 4q-8 16 -25 49zM236 498q-3 -7 -3 -8
q-2 -4 -10 -19.5t-12 -23.5q-3 -7 -11 -7h-27q23 44 29 54q1 4 5 4h29zM267 232q0 -9 -2 -9q-11 -3 -16 2q-3 4 -18 21q-4 5 -31 35l-1 -0.5l-1 -0.5v-28v-25q0 -6 -7 -5h-2q-6 0 -6 5v75l1 2q13 3 22 -8q5 -5 45 -51l1 8v45q0 6 8 7q8 0 7 -7v-33v-33zM365 238
q-4 -15 -21 -16q-20 -1 -39 0q-10 1 -16 7.5t-7 16.5v35q1 9 6.5 16t14.5 7q22 2 43 0q10 -1 15.5 -8.5t4.5 -18.5h-10q-7 0 -6 6q1 5 -1 6.5t-7 1.5q-16 -1 -37 0q-7 0 -6 -6q0 -23 -1 -43q0 -6 7 -6h39q7 0 6 6v0.5v0.5q0 11 -1 11.5t-11 0.5h-2h-3q-7 0 -8.5 2t0.5 11h42
q-1 -28 -2 -30zM450 225l-3 -3h-1h-1q-15 -1 -18 3t0 21h7h16v-21zM467 230q-4 7 -29 57q-4 -7 -4 -8l-24 -48q-4 -8 -7.5 -9t-12.5 1l1 5q4 8 11.5 22.5t13.5 26t11 22.5q3 6 10 6q10 -1 12 -5q1 -2 37 -73l1 -3q-14 -6 -20 6zM477 455h-21q-1 -4 -1 -10t-0.5 -10
t-2.5 -8.5t-6 -7.5q-2 -1 -32 -19q17 -9 35 -9h32q8 0 7 -7v-4q0 -9 -1 -10.5t-8 -1.5h-6q-43 0 -55 6q-24 9 -27 11q-6 3 -14 0q-34 -14 -44 -16q-7 -1 -49 -1q-3 0 -4 4q-1 9 0 15q1 3 7 4q5 0 20 0.5t23 1.5q2 0 25 6v1v1q-20 10 -21 11q-23 10 -21 33q1 6 -1 8t-8 2
q-3 -1 -11.5 -0.5t-11.5 -0.5q-7 0 -7 8q-1 12 1 14t14 2h9.5h8.5q7 0 6 6v3.5v3.5q0 6 7 6h7h7q10 1 9 -8v-11h9h65q5 0 7 1.5t2 7.5q0 8 1 9t9 1h4q11 0 12.5 -1.5t2.5 -12.5q1 -5 6 -5h12h12q4 0 6 -1.5t2 -6.5q-1 -13 -2 -14t-14 -1zM491 500q-1 -2 -5 -3h-7q-8 0 -9 1
t-2 9q0 6 -6 6h-155q-7 0 -6 -7q0 -5 -2 -7t-8 -2q-11 0 -13 1.5t-1 12.5q0 22 21 22h30.5h29.5t9 1q1 10 3 11.5t13 1.5h8q5 1 7.5 -1t2.5 -8q-1 -5 7 -5h28h31q8 0 12 -1q8 -3 12 -14t0 -18zM581 232q0 -9 -2 -9q-13 0 -15.5 2.5t-21.5 23.5q-18 20 -24 27l-3 6
q-2 -1 -3 -2v-49q0 -6 -3.5 -8.5t-9.5 -0.5q-3 2 -3 6v38v33q0 5 5 6q11 0 18 -7q1 -3 40 -46q0 -1 4 -6q1 0 3 1v7v42q0 9 8 9q7 0 7 -9v-32v-32zM605 473q0 -9 -1 -10.5t-10 -1.5h-14q-5 0 -5 -4v-16h22q8 0 8 -8q0 -11 -1.5 -13t-13.5 -2h-15v-35h17q8 1 8 -8v-3
q0 -9 -8 -9q-5 1 -14.5 1h-14.5q-15 0 -16 15q0 20 1 32q0 8 -8 7q-9 -1 -12 0q-1 1 -7 6v2q0 11 1.5 13t12.5 2q18 0 12 17q-1 3 -5 3q-3 1 -15 0q-6 0 -6 6q0 14 1.5 15t13.5 1q55 0 60 1q11 0 9 -10v-1zM619 522q0 16 16 16q43 1 86 0q16 0 16 -16v-62q0 -17 -17 -17h-65
h-10v-60h19q7 1 7 -10q0 -10 -7 -10q-5 1 -14.5 1h-14.5q-16 0 -16 16v142zM678 227q-7 -4 -13 -5h-39q-7 0 -7 7v38.5v28.5q0 7 8 7h15.5h15.5q17 0 23 -13q5 -12 -9 -25v-1q5 -3 5 -4q10 -5 10.5 -16t-9.5 -17zM683 392q-2 2 -24 41h26q2 0 5 -4q1 -2 8 -12q2 1 5.5 5
t6 6.5t5.5 3.5q2 1 25 1q-4 -7 -5 -7q-2 -3 -6.5 -7.5t-8 -8.5t-6.5 -8q-4 -5 -2 -9q4 -10 11 -10q5 1 11 0q7 0 7 -9v-2q0 -4 -1 -6.5t-6 -1.5h-1q-25 -1 -31.5 2.5t-18.5 25.5zM776 222q-1 0 -9 4l-1 1q-3 17 -23 15q-3 -1 -9.5 -0.5t-9.5 -0.5q-4 0 -7 -5q-1 -1 -2.5 -5
t-2.5 -5q-5 -5 -9 -4q-6 1 -2 9q11 24 20 45q8 19 10 22l8 9q9 -8 9 -9q10 -21 31 -67q3 -8 -3 -9zM787 371v27v27q1 4 -1 6t-7 2h-16l4 6q25 31 32 39q3 4 9 5h28q-3 -5 -9.5 -13t-12 -14.5t-9.5 -12.5q6 -1 6.5 -1h5.5q1 -6 1 -7v-31.5v-31.5q0 -9 -9 -9q-6 1 -14 1
q-8 -1 -8 7zM868 231q0 -8 -5 -9q-5 -2 -9 4q-5 6 -37 47q0 1 -6 8l-1 -8v-43q0 -9 -6.5 -9t-6.5 9v31.5v31.5q0 9 5 10q7 0 11 -4q5 -6 36 -46l5 -6l1 1h1v12v34q0 10 6 9q7 0 7 -9v-28q0 -31 -1 -35zM956 222q-4 -5 -10 2l-20 26l-7 8l-3.5 -3t-4 -3.5t-3 -3.5t-2.5 -4
t-1.5 -4.5t0.5 -5.5q2 -13 -7 -13q-7 0 -7 13v60q0 10 7 9q7 0 7 -9v-32l6 5l31 31l3 3q1 0 10 1q-1 -9 -1 -10q-3 -3 -16 -15q0 -1 -10 -9q20 -25 25 -31q3 -4 3 -5q1 -7 0 -10zM971 456h-12v-66q0 -8 -1 -12q-2 -14 -16 -14h-30t-30 -1q-8 0 -8 8q-1 11 1 13t13 2h33
q7 0 7 7q-1 32 0 57q0 6 -7 6h-33h-32q-10 0 -10 9q0 6 0.5 8.5t0.5 5t1.5 2.5t2 0.5t5 0.5h6.5h115q7 0 8.5 -1.5t1.5 -8.5q0 -12 -2 -14t-14 -2zM111 291h-16h-0.5h-0.5q-4 0 -7.5 0.5t-7.5 0t-6 -2.5t-2 -5.5t0.5 -9t-0.5 -7.5v0v-1q0 -5 6 -5h34q4 0 5.5 1.5t1.5 4.5
q-1 9 0 18q0 6 -7 6z" />
    <glyph glyph-name="30" unicode="&#xe620;" 
d="M512 747q-185 0 -316 -131t-131 -316t131 -316t316 -131t316 131t131 316t-131 316t-316 131zM512 -110q-111 0 -205.5 55t-149.5 149.5t-55 205.5t55 205.5t149.5 149.5t205.5 55t205.5 -55t149.5 -149.5t55 -205.5t-55 -205.5t-149.5 -149.5t-205.5 -55zM538 312l-11 3
v187l20 -7q32 -11 51 -45q3 -5 12 -5q7 0 11 7q4 10 1 14q-31 53 -83 63l-12 2v36q0 8 -4 12q-2 3 -11 3q-8 0 -11 -4q-3 -3 -4 -11v-37l-13 -1q-42 -5 -69 -33q-31 -30 -31 -82q0 -82 102 -112l11 -3v-202l-19 5q-38 11 -63 48q-4 7 -16 8q-6 0 -9 -6q-3 -11 1 -19
q34 -53 93 -63l13 -2v-35q0 -9 4 -12q2 -3 11 -3q6 0 11 4q4 3 4 11v35l13 2q37 7 65 33q35 33 35 82q0 94 -102 127zM497 322l-22 10q-61 28 -61 82q0 38 23 63q15 17 42 21l18 3v-179zM583 123q-15 -14 -36 -21l-20 -7v196l22 -11q61 -31 61 -95q0 -37 -27 -62z" />
    <glyph glyph-name="hankouyinhang" unicode="&#xe621;" 
d="M931 108q-118 144 -129 157q-41 50 -87 -2q-31 -34 -117 -115q-78 -72 -151 -1q-25 25 -166 168q-34 34 -35.5 73.5t28.5 73.5q73 85 191 193q34 28 67.5 24.5t66.5 -33.5q59 -53 122 -120q14 -15 25 -21t24 -2.5t28 18.5q1 2 10.5 11.5t11.5 12t8.5 11t6.5 13.5t0.5 13
t-4 16.5t-11.5 17.5q-77 100 -206 131q-15 3 -24 6.5t-19 10t-14.5 17.5t-5.5 28q-2 44 16.5 60t59.5 6q243 -61 340 -248q22 -39 18.5 -75t-38.5 -64q0 -1 -10 -11q-19 -20 -27 -28t-17.5 -22t-12.5 -18.5t-3 -16t3 -15.5t12.5 -18t17.5 -22l27 -27q27 -28 38 -44t11 -39.5
t-12.5 -48t-42.5 -70.5zM672 399q-19 15 -52 50t-55.5 52t-39.5 15q-21 -4 -42 -23.5t-47.5 -54.5t-38.5 -48q13 -12 41 -44.5t49.5 -50t41.5 -17.5q20 1 42 18.5t53 52t48 50.5zM810 150l41 -41l44 -44q-69 -84 -174.5 -127t-222 -36t-217.5 64q-141 80 -202 209.5
t-39 304.5q16 134 115 240.5t242 142.5q16 5 43.5 -1.5t28.5 -13.5q1 -3 3 -16t2.5 -17.5t0.5 -16t-2.5 -17t-7 -14t-13.5 -14.5t-21 -11q-130 -56 -183 -115q-63 -71 -81.5 -161.5t7.5 -178t92 -152.5q104 -102 245 -108.5t255 86.5q1 1 44 37z" />
    <glyph glyph-name="guangzhoushishangyeyinhang" unicode="&#xe62a;" 
d="M76 406q0 6 1 15.5t7.5 38.5t15.5 57t27.5 66.5t42 71t60.5 65.5t81 55.5t106 35.5t134 12q8 -1 21 -2.5t51.5 -12t74 -26t80 -48t78 -74.5t59.5 -108.5t33 -147.5h-211q-5 0 -14 0.5t-36 10.5t-53 28t-61 58.5t-64 95.5q-4 -7 -12.5 -19t-35.5 -43t-53.5 -56t-65 -47
t-73.5 -26h-193zM71 379l215 -5q35 0 64 -27h-274zM81 323h313q27 -10 37 -34l-343 -3zM98 259h362q2 -2 5.5 -6t12.5 -19t13.5 -32.5t9 -47.5t-0.5 -64q1 -1 2.5 -2t6 -3t8 -2.5t7.5 1.5t5 9q0 2 -0.5 5.5t-1 15t-1 22.5t0 26t1.5 28t4 26t7.5 22.5t11 15t15.5 5.5l362 3
l-22 -49h-125h-4.5t-10 -2t-13.5 -7.5t-10 -19.5t-3 -35q0 -5 -0.5 -13t-5 -31t-12 -43.5t-24 -45t-39 -41t-59.5 -25.5t-83 -4q-1 2 -13.5 0t-33.5 2t-45.5 9t-50 19.5t-45.5 33.5t-32.5 52t-12.5 75q0 2 0.5 5t0.5 12t-1.5 16t-5 16.5t-9 13.5t-14.5 7.5t-22 -2.5h-118z
M588 289q0 1 1 3.5t5.5 9.5t11 10t18.5 6.5t27 -0.5l287 2l-5 -29zM664 345q1 3 4.5 8.5t13.5 14.5t21 9l240 -5l-5 -30z" />
    <glyph glyph-name="shenzhenfazhanyinhang" unicode="&#xe62b;" 
d="M840 158v488q-1 28 -12.5 46t-26.5 24.5t-30 9.5t-25 2l-11 -2l-471 -2q-15 1 -28.5 -2.5t-22.5 -9.5t-16.5 -14t-11.5 -17t-7.5 -18t-4.5 -17t-2 -14t-0.5 -10t-0.5 -4v0l-1 -470q1 -24 7 -42t15 -29t21.5 -18t22.5 -10t21.5 -4t15.5 -1t6 1v0l469 -2q93 1 93 115z
M721 184q-6 4 -15 9.5t-38.5 19.5t-59 23.5t-71.5 15t-81 0t-83 -28t-81 -62.5l6.5 8t16 23t20.5 36t20 47t16 55.5t6.5 63.5t-7.5 68t-26.5 72t-50.5 73q5 -5 14 -11.5t37 -23.5t56.5 -29t70 -19.5t80.5 -3.5t84.5 26.5t86.5 64.5q-4 -5 -10.5 -13.5t-22.5 -35.5t-27.5 -55
t-19 -69t-4.5 -80t23.5 -85.5t59.5 -88.5z" />
    <glyph glyph-name="04615510" unicode="&#xe633;" 
d="M232 349l16 -8q42 -21 41 -70q-2 -36 -25 -56t-60 -23q-14 -1 -100 -3h-74v305l8 2q130 -1 150 -2q51 -2 73 -39q16 -25 10 -53.5t-31 -45.5zM139 247h34q2 0 17 2q14 1 23.5 9.5t9.5 20.5q0 15 -8 24.5t-23 10.5q-29 2 -90 2q-2 0 -5 -3t-3 -5q-1 -10 -1 -26v-26
q0 -9 9 -9h37zM94 373q76 0 82 1q36 3 28 40q-5 21 -32 22q-23 1 -71 1q-2 0 -4.5 -2t-2.5 -4v-58zM663 438q-25 -19 -59 -45q-33 39 -80 34q-33 -4 -53 -29q-24 -28 -22 -62.5t27 -57.5q29 -26 63 -22t68 37q5 -5 58 -44q-13 -32 -61.5 -53.5t-90.5 -14.5q-61 11 -97 49
t-42 95q-7 56 23 102.5t80 65.5q41 15 79 9t65.5 -23.5t41.5 -40.5zM953 412q-35 18 -37 19q-39 16 -67 6q-16 -6 -16 -24q-1 -17 15 -24q2 -1 38 -13q59 -21 63 -22q61 -28 43 -102q-14 -52 -75 -63q-85 -17 -163 44q31 37 39 47q31 -20 33 -21q31 -18 71 -14q30 2 32 26
q2 19 -14 25q-13 5 -57 21q-3 1 -18.5 5.5t-23.5 8.5q-65 27 -46 101q8 28 30.5 46t52.5 20q73 7 126 -32l7 -5q-13 -19 -33 -49zM521 599q124 -2 209 -94q13 -13 2.5 -22t-21.5 3q-56 60 -126 77q-124 30 -224 -47q-6 -5 -32 -30q-13 -12 -22 -3t2 22q86 92 212 94zM512 86
q-117 2 -202 94q-12 13 -3 22q9 10 23 -4q55 -59 125 -76q125 -30 223 47q5 4 34 32q12 10 21 1t-2 -21q-40 -45 -98 -70.5t-121 -24.5z" />
    <glyph glyph-name="ningboyinxing" unicode="&#xe637;" 
d="M978 173q-19 54 -66.5 88.5t-106.5 34.5q-77 0 -131 -54.5t-54 -130.5q0 -63 38 -112.5t98 -65.5q-98 -53 -209 -61q-94 102 -94 239q0 135 89 235q14 13 26 27q102 93 240 93q120 0 216 -74v-4v-5q0 -110 -46 -210zM651 510q26 72 26 149q0 19 -2 44q69 16 139 16
q45 0 91 -7q83 -99 108 -225q-96 53 -205 53q-82 0 -157 -30zM612 886q108 -21 197 -86q-75 0 -150 -17q-16 54 -47 103zM489 397q-102 -93 -240 -93q-12 0 -27 1q47 128 144 226q7 6 13 13q98 93 224 138q1 -13 1 -23q0 -135 -90 -235q-13 -13 -25 -27zM295 848
q103 48 217 48v0q53 -58 76 -133q-85 -28 -160 -76q-5 57 -42 101t-91 60zM354 670q0 -26 -12 -49q-27 -24 -51 -50q-22 -10 -47 -10q-45 0 -77 32t-32 77t32 77t77.5 32t77.5 -32t32 -77zM141 321q-80 26 -141 86q6 120 64 225q12 -58 56 -98.5t104 -47.5q-52 -77 -83 -165
zM102 88q0 -2 0.5 -6t0.5 -6q39 -52 90 -92q-9 53 -9 104q0 73 17 145q27 -3 48 -3q81 0 157 30q-27 -72 -27 -149q0 -129 72 -236q-172 20 -296.5 141t-149.5 291q54 -37 116 -57q-19 -80 -19 -162zM695 111q0 45 32 77t77.5 32t77.5 -32t32 -77t-32 -77.5t-77.5 -32.5
t-77.5 32.5t-32 77.5z" />
    <glyph glyph-name="tianjinyinxing" unicode="&#xe63e;" 
d="M185 0q56 5 105 23q186 63 252 261q3 8 17.5 59.5t28.5 79.5q16 35 35 60q38 50 89 76v0q3 0 3 -3v0v-362q0 -6 -4.5 -10.5t-10.5 -4.5h-135h-34q-21 -41 -49.5 -74t-58.5 -53.5t-52.5 -32t-44.5 -19.5h511q24 0 41 17t17 41v516v1v132q0 24 -17 41t-41 17h-1
q-53 -4 -103 -22q-186 -62 -251 -261q-5 -15 -16.5 -57.5t-21.5 -65.5q-47 -110 -132 -152v0q-3 0 -3 3v0v307v0v54q0 6 4.5 10.5t10.5 4.5h123h42q21 41 49.5 74.5t57.5 54t51 32t43 18.5h-503q-24 0 -41 -17t-17 -41v-515v-1v-133q0 -23 16.5 -40t39.5 -18z" />
    <glyph glyph-name="04403600" unicode="&#xe63f;" 
d="M782 134q53 68 74.5 143t13 141t-32.5 121t-60 96q-84 93 -205 120.5t-236 -21.5q-115 -50 -177.5 -158.5t-49.5 -236.5q10 -106 86 -200t169 -115q2 10 5.5 29.5t5.5 34.5t3 29q5 149 1 210q-2 38 -6 56t-17.5 30.5t-32 16.5t-58.5 8q78 29 126 8q50 -21 56 -80
q21 -204 -50 -403q-8 -25 -15 -28t-31 5q-110 33 -191 114.5t-115.5 191t-13.5 222.5q23 116 94.5 206.5t177 136.5t221.5 37q83 -7 156 -40t127 -83.5t90.5 -117.5t50 -140t2 -152t-50.5 -152q-9 -17 -20 -24.5t-29 -5.5q-4 1 -68 1zM476 47q24 103 66 183t114 139
q0 1 -0.5 3.5t-0.5 3.5q-20 -2 -58 -4t-49 -3q-4 49 95 175q-57 19 -114.5 23.5t-115.5 -6.5t-107 -26.5t-111 -41.5q67 73 176 107.5t221.5 21.5t187.5 -72q-56 -30 -96 -61t-69 -75q34 1 64 1t63.5 -5.5t63.5 -17.5q-111 -51 -188.5 -137t-141.5 -208v0zM632 -48
q0 -21 2 -31h-35l-2 15h-1q-18 -17 -51 -17q-25 0 -39.5 10.5t-14.5 26.5q0 23 27 35t75 12q0 6 -0.5 9.5t-3.5 8.5t-11.5 8t-21.5 3q-25 0 -44 -9l-8 18q24 11 59 11q69 0 69 -52v-48v0zM594 -15q-65 0 -65 -26q0 -21 27 -21q16 0 27 7.5t11 18.5v21v0zM814 -79h-38v75
q0 33 -35 33q-15 0 -27 -8t-12 -23v-77h-39v92q0 14 -1 36h34l2 -19h1q17 22 55 22q25 0 42.5 -13t17.5 -40v-78v0zM996 -81h-47l-52 58l-15 -12v-46h-39v186h39v-116h1q9 10 14 15l45 42h46l-65 -52z" />
    <glyph glyph-name="-" unicode="&#xe656;" 
d="M788 232q-78 0 -130 -57l-268 146q8 26 8 52q0 33 -12 64l268 170q24 -33 61 -52t80 -19q73 0 125 52t52 125.5t-52 125.5t-125 52t-125 -52t-52 -126q0 -13 2 -27l-282 -179q-21 18 -55 30.5t-62 12.5v0q-73 0 -125 -51.5t-52 -125t52 -125.5t125 -52v0q31 0 67.5 15.5
t57.5 36.5l271 -148q-6 -22 -6 -45v0q0 -74 51.5 -126t125 -52t125.5 52t52 125.5t-52 125.5t-125 52z" />
    <glyph glyph-name="-1" unicode="&#xe657;" 
d="M514 -128q-104 0 -198 40.5t-162.5 109t-109 162.5t-40.5 198t40.5 198t109 162.5t162.5 109t198 40.5t198 -40.5t162.5 -109t109 -162.5t40.5 -198t-40.5 -198t-109 -162.5t-162.5 -109t-198 -40.5zM514 810q-116 0 -215 -57t-156 -156t-57 -215t57 -215t156 -156
t215 -57t215 57t156 156t57 215t-57 215t-156 156t-215 57zM719 634l-149 -253h117v-56h-136v-77h136v-56h-136v-113h-71v113h-141v56h141v77h-141v56h121l-148 253h79q104 -188 126 -239h1q8 21 42 84l84 155h75z" />
    <glyph glyph-name="-2" unicode="&#xe658;" 
d="M514.5 -126q-103.5 0 -197.5 40t-162 108t-108.5 162t-40.5 197.5t40.5 197.5t108.5 162t162 108.5t197.5 40.5t197.5 -40.5t162 -108.5t108 -162t40 -197.5t-40 -197.5t-108 -162t-162 -108t-197.5 -40zM514.5 808q-115.5 0 -214 -57t-155.5 -155.5t-57 -214t57 -214
t155.5 -155.5t214 -57t214 57t155.5 155.5t57 214t-57 214t-155.5 155.5t-214 57zM523 335v0q-17 0 -28.5 12t-11.5 28v0v277q0 17 11.5 29t28.5 12t29 -12t12 -29v-277v0q0 -16 -12 -28t-29 -12v0zM800 335h-277q-17 0 -28.5 12t-11.5 28.5t11.5 28.5t28.5 12h277
q17 0 29 -12t12 -28.5t-12 -28.5t-29 -12z" />
    <glyph glyph-name="-3" unicode="&#xe659;" 
d="M1015 557q0 65 -45 110l-176 176q-45 45 -110 45v0v0q-65 0 -109 -45l-555 -555l-1 -1v0l-1 -1v-1h-1v0l-1 -1v-1l-1 -1l-1 -1v0l-1 -1v0v-1v0l-1 -1v-1l-1 -1v0v-2v0l-1 -1v0l-1 -3v-1v0v-3h-1v-344q0 -17 12.5 -29t29.5 -12h341h1h2v1h2h1l3 1l2 1h1h1v1l1 1h1l1 1h1
l1 1h1l1 1l1 1l1 1l1 1h1l555 556q45 45 45 109v0v0zM504 654l50 -51l-394 -394l-50 50zM92 -35v192l192 -192h-192v0zM195 173l395 395l105 -105l-395 -394zM386 -17l-50 50l395 395l50 -51zM931 557q0 -29 -21 -50l-69 -70l-277 276l32 32l38 38q21 21 50 21v0
q30 0 50 -21l176 -176q21 -21 21 -50z" />
    <glyph glyph-name="-4" unicode="&#xe660;" 
d="M1013 514q0 1 1 3.5t1 3.5q0 37 -67 68.5t-179 48.5q-11 2 -17.5 -6.5t-3.5 -18t18 -12.5q92 -14 146.5 -39t54.5 -53q0 -31 -60 -59.5t-165 -46t-226 -17.5t-226 17.5t-165 46t-60 59.5q0 56 204 93q13 2 16 12t-3.5 18t-15.5 7q-113 -17 -181 -49t-68 -69l2 -7
q-1 0 -1.5 0.5t-0.5 1.5v-406v0q0 -31 15.5 -68.5t36.5 -59.5q24 -41 150.5 -68t295.5 -27q240 0 375 49q10 3 20 8q37 17 50 35q23 23 39 61t16 70v0v406l-1.5 -1.5zM418 324q19 -2 29 -15l69 -99l69 99q10 13 29 15q31 -4 35 -35q0 -12 -7 -21l-60 -84h39q10 -1 16 -9.5
t7 -18.5q-2 -19 -23 -21h-69v-30h69q20 -2 23 -27q-2 -19 -23 -21h-69v-72q-2 -32 -36 -32t-36 32v72h-69q-21 2 -23 21q3 25 23 27h69v30h-69q-21 2 -23 21q1 10 7 18.5t16 9.5h39l-60 84q-7 9 -7 21q3 31 35 35zM400 693h39v-190q0 -32 22.5 -54.5t54.5 -22.5t54.5 22.5
t22.5 54.5v190h39q20 2 28.5 14t6.5 26t-11 23l-109 109q-13 13 -31.5 13t-30.5 -13l-109 -109q-9 -9 -11.5 -23.5t6.5 -26.5t29 -13z" />
    <glyph glyph-name="-5" unicode="&#xe661;" 
d="M480 439q13 -12 31 -12t31 12l109 109q9 9 11 23t-7 26t-28 13h-39v190q0 31 -22.5 53.5t-54.5 22.5t-54 -22.5t-22 -53.5v-190h-40q-19 -1 -28 -13.5t-6.5 -26t11.5 -22.5zM1007 514l0.5 2.5t0.5 4.5q0 37 -67 68.5t-178 48.5q-10 1 -17 -7t-3.5 -18t17.5 -12
q92 -14 146 -39t54 -54q0 -30 -59.5 -58.5t-164.5 -46t-225 -17.5t-225 17.5t-164.5 46t-59.5 58.5q0 56 203 93q13 3 16 12.5t-3.5 17.5t-15.5 7q-112 -17 -180 -48.5t-68 -68.5q0 -1 1 -7l-0.5 0.5l-0.5 0.5v-404q0 -74 52 -127q24 -41 150 -68t295 -27q239 0 373 49
q10 3 19 7q38 17 51 36q22 22 38 60t16 70v0v404l-0.5 -0.5zM414 325q19 -2 28 -15l69 -99l69 99q10 13 28 15q32 -4 36 -36q0 -11 -8 -20l-59 -85h39q9 0 15 -8.5t7 -18.5q-2 -19 -22 -21h-69v-30h69q20 -2 22 -27q-2 -19 -22 -21h-69v-72q-2 -32 -35.5 -32t-35.5 32v72
h-70q-20 2 -22 21q3 25 22 27h70v30h-70q-20 2 -22 21q1 10 7 18.5t15 8.5h40l-60 85q-8 9 -8 20q4 32 36 36z" />
    <glyph glyph-name="--" unicode="&#xe662;" 
d="M326 713v0q0 -17 -11.5 -28.5t-28.5 -11.5v0v0q-16 0 -27.5 11.5t-11.5 28.5v135q0 17 11.5 28.5t27.5 11.5v0v0q17 0 28.5 -11.5t11.5 -28.5v-135v0zM762 713q0 -17 -11.5 -28.5t-27.5 -11.5v0v0q-17 0 -28.5 11.5t-11.5 28.5v0v135v0q0 17 11.5 28.5t28.5 11.5v0v0
q16 0 27.5 -11.5t11.5 -28.5v-135zM818 821v-101q0 -40 -28 -68t-67.5 -28t-67.5 28t-28 68v103h-245v-103q0 -40 -28 -68t-67.5 -28t-67.5 28t-28 68v102q-68 -4 -114.5 -53.5t-46.5 -118.5v-596q0 -71 50.5 -121.5t121.5 -50.5h592q72 0 122.5 50.5t50.5 121.5v596
q0 65 -42.5 113.5t-106.5 57.5zM754 84h-512q-21 0 -36 15t-15 36.5t15 36.5t36 15h512q21 0 36 -15t15 -36.5t-15 -36.5t-36 -15zM754 275h-512q-21 0 -36 15t-15 36.5t15 36.5t36 15h512q21 0 36 -15t15 -36.5t-15 -36.5t-36 -15zM754 467h-512q-21 0 -35.5 15t-14.5 35.5
t14.5 35.5t35.5 16h512q21 -1 36 -16t15 -35.5t-15 -35.5t-36 -15z" />
    <glyph glyph-name="-6" unicode="&#xe663;" horiz-adv-x="1025" 
d="M37 -55v0q-11 0 -18.5 7.5t-7.5 18.5v0v828q0 10 7.5 17.5t18.5 7.5t18.5 -7.5t7.5 -17.5v-828v0q0 -11 -7.5 -18.5t-18.5 -7.5v0zM999 -55h-962q-11 0 -18.5 7.5t-7.5 18t7.5 18.5t18.5 8h962q11 0 18.5 -8t7.5 -18.5t-7.5 -18t-18.5 -7.5zM178 301q-11 0 -18.5 7.5
t-7.5 18t8 18.5l269 269q8 8 19 8q9 0 16 -6l284 -232l186 158q7 6 16 6q11 0 18.5 -7.5t7.5 -18.5t-9 -19l-202 -172q-7 -6 -17 -6q-9 0 -16 6l-283 231l-253 -254q-7 -7 -18 -7v0zM304 -55v0q-11 0 -18.5 7.5t-7.5 18.5v0v247h-79v-247q0 -11 -7.5 -18.5t-18 -7.5t-18 7.5
t-7.5 18.5v273q0 10 7.5 18t18.5 8h130v0q10 0 18 -8t8 -18v0v-273q0 -11 -8 -18.5t-18 -7.5zM835 -55v0q-10 0 -17.5 7.5t-7.5 18.5v0v247h-79v-247q0 -11 -7.5 -18.5t-18.5 -7.5t-18.5 7.5t-7.5 18.5v273v0q0 10 7.5 18t18.5 8v0h130v0q11 0 18.5 -8t7.5 -18v0v-273v0
q0 -11 -7.5 -18.5t-18.5 -7.5v0zM564 -55v0q-10 0 -18 7.5t-8 18.5v0v376h-78v-376q0 -11 -7.5 -18.5t-18.5 -7.5t-18.5 7.5t-7.5 18.5v401q0 11 7.5 18.5t18.5 7.5h130q11 0 18.5 -7.5t7.5 -18.5v-401v0q0 -11 -7.5 -18.5t-18.5 -7.5v0z" />
    <glyph glyph-name="-7" unicode="&#xe664;" 
d="M598 -14h-484q-11 0 -18.5 7.5t-7.5 18.5v855v0q0 10 7.5 17.5t18.5 7.5h743q11 0 18.5 -7.5t7.5 -17.5v-585q0 -10 -7.5 -17.5t-18 -7.5t-18 7.5t-7.5 17.5v559h-692v-804h458q10 0 17.5 -7.5t7.5 -18t-7.5 -18t-17.5 -7.5zM723 658h-475q-11 0 -18.5 7.5t-7.5 18
t7.5 18t18.5 7.5h475q11 0 18.5 -7.5t7.5 -18t-7.5 -18t-18.5 -7.5zM723 482h-475q-11 0 -18.5 7.5t-7.5 18t7.5 18t18.5 7.5h475q11 0 18.5 -7.5t7.5 -18t-7.5 -18t-18.5 -7.5zM723 306h-475q-11 0 -18.5 7.5t-7.5 18t7.5 18t18.5 7.5h475q11 0 18.5 -7.5t7.5 -18t-7.5 -18
t-18.5 -7.5zM781.5 -124q-86.5 0 -148 61.5t-61.5 148t61.5 148t148 61.5t148 -61.5t61.5 -148t-61.5 -148t-148 -61.5zM781.5 244q-65.5 0 -112 -46.5t-46.5 -112t46.5 -112t112 -46.5t112 46.5t46.5 112t-46.5 112t-112 46.5zM781.5 60q-10.5 0 -18 7.5t-7.5 17.5v79
q0 10 7.5 17.5t18 7.5t18 -7.5t7.5 -17.5v-79q0 -10 -7.5 -17.5t-18 -7.5zM873 -14v0q-7 0 -14 4l-91 59q-11 8 -11 22q0 10 7.5 17.5t17.5 7.5q8 0 14 -4l91 -59q12 -8 12 -21q0 -11 -7.5 -18.5t-18.5 -7.5v0z" />
    <glyph glyph-name="-8" unicode="&#xe665;" 
d="M504.5 277q-126.5 0 -216 89.5t-89.5 216t89.5 216t216 89.5t216 -89.5t89.5 -216t-89.5 -216t-216 -89.5zM504.5 833q-103.5 0 -177 -73.5t-73.5 -177t73.5 -177t177 -73.5t177 73.5t73.5 177t-73.5 177t-177 73.5zM938 -120h-848q-11 0 -19.5 8.5t-8.5 19.5
q0 114 61 211t165 153.5t226.5 56.5t226.5 -56.5t164.5 -153.5t60.5 -211q0 -11 -8 -19.5t-20 -8.5zM119 -64h790q-7 93 -61.5 170.5t-142.5 122.5t-190.5 45t-191 -45t-143 -122.5t-61.5 -170.5z" />
    <glyph glyph-name="-9" unicode="&#xe666;" 
d="M479 613q0 16 11.5 27.5t27.5 11.5t27.5 -11.5t11.5 -27.5v-187q0 -17 -11.5 -28t-27.5 -11t-27.5 11t-11.5 28v187zM518 892q102 0 194.5 -39t162.5 -109h1q70 -70 109 -162.5t39 -195.5t-39 -195.5t-110 -162.5v0q-70 -71 -162.5 -110t-194.5 -39q-103 0 -195.5 39.5
t-162.5 109.5h-1q-70 70 -109 162.5t-39 195.5t39 195.5t109 162.5h1v0q70 70 162.5 109t195.5 39zM821 689q-60 59 -138 92t-165 33q-88 0 -166.5 -33t-137.5 -92v0q-59 -59 -92 -137.5t-33 -165.5t33 -165.5t92 -137.5v0q60 -60 138 -93t166 -33q87 0 165 33t138 93v0
q59 59 92 137.5t33 165.5t-33 165.5t-92 137.5zM651 519q-12 12 -12 28t12 27q11 11 27.5 11t27.5 -11q17 -17 32 -39t25 -46q11 -27 15 -50q6 -27 6 -53.5t-6 -52.5q-4 -24 -15 -51q-10 -23 -25 -45q-14 -21 -32 -40q-21 -20 -40 -32q-20 -14 -45 -24q-24 -11 -51 -16
q-26 -5 -52 -6q-26 0 -53 6q-27 5 -51 16q-26 11 -45 24q-21 14 -40 32q-18 19 -33 40q-13 20 -23 45q-11 24 -17 51q-5 28 -5 52.5t5 53.5q6 27 17 50q9 24 23 46q15 21 33 39q12 11 28 11t27 -11t11 -27t-11 -28q-15 -17 -23 -28q-10 -15 -17 -32q-8 -17 -11 -36
q-4 -18 -4 -36v-1q0 -20 4 -38q3 -18 10.5 -35.5t17.5 -31.5q10 -15 23 -28t28 -24q17 -11 32 -17q17 -8 36 -11q16 -4 38 -4t37 4q17 3 36 11q15 7 32 17q16 11 28 24q13 13 23 28t17 31q7 15 11 36q4 19 4 38t-4 37q-4 22 -11 36q-7 17 -17 32q-9 14 -23 28z" />
    <glyph glyph-name="-10" unicode="&#xe667;" 
d="M605 -72h-515q-11 0 -19 8t-8 20v911q0 11 8 19t19 8h792q11 0 19 -8t8 -19v-623q0 -11 -8 -19t-19 -8t-19 8t-8 19v595h-737v-856h487v0q12 0 20 -8t8 -19v0v0q0 -12 -8 -20t-20 -8zM739 644h-506q-11 0 -19 8t-8 19.5t8 19.5t19 8h506q12 0 20 -8t8 -19.5t-8 -19.5
t-20 -8zM739 457h-506q-11 0 -19 8t-8 19t8 19t19 8h506q12 0 20 -8t8 -19t-8 -19t-20 -8zM739 269h-506q-11 0 -19 8t-8 19t8 19t19 8h506q12 0 20 -8t8 -19t-8 -19t-20 -8zM800 193l47 -96l106 -15l-77 -75l18 -106l-94 50l-95 -50l18 106l-77 75l106 15zM705 -126v0
q-11 0 -19 8t-8 19v5l16 91l-67 65q-8 8 -8 20q0 9 7 17t17 10l91 13l41 83q8 15 25 15t24 -15l41 -83l92 -13q9 -2 16 -10t7 -17q0 -12 -8 -20l-66 -65l15 -91q1 -2 1 -5q0 -11 -8 -19t-20 -8q-6 0 -12 3l-82 43l-82 -43q-6 -3 -13 -3zM800 -21q6 0 12 -4l46 -24l-9 51v5
q0 11 8 19l37 37l-51 7q-14 2 -20 15l-23 46l-23 -46q-7 -13 -21 -15l-51 -7l37 -37q8 -8 8 -19v-5l-9 -51l46 24q6 4 13 4v0z" />
    <glyph glyph-name="-11" unicode="&#xe668;" 
d="M513 828l144 -293l323 -47l-233 -228l55 -322l-289 152l-289 -152l55 322l-234 228l323 47z" />
    <glyph glyph-name="-12" unicode="&#xe669;" 
d="M224 -101v0q-16 0 -27.5 11.5t-11.5 27.5q0 4 1 7l51 301l-219 214q-12 11 -12 28q0 14 10 25t24 13l303 44l135 275q4 9 14.5 15t20.5 6t20 -6t15 -15l135 -275l303 -44q14 -2 23.5 -13t9.5 -25q0 -17 -12 -28l-219 -214l52 -301q1 -3 1 -7q0 -16 -11.5 -27t-27.5 -11
q-10 0 -18 4l-271 142l-271 -142q-9 -5 -18 -5zM513 129q9 0 18 -4l219 -116l-42 244v7q0 16 11 28l178 173l-245 35q-9 2 -17.5 8t-12.5 14l-109 222l-110 -222q-4 -8 -12.5 -14t-16.5 -8l-245 -35l177 -173q12 -12 12 -28q0 -3 -1 -7l-42 -244l220 116q8 4 18 4v0z" />
    <glyph glyph-name="-13" unicode="&#xe66a;" 
d="M114 66q4 1 10 3.5t21 12.5t23 25q13 21 16.5 27t8.5 18.5t4.5 22.5t-4.5 24q-1 3 -1.5 9.5t0 24t5.5 31t19 26.5t35 17q33 6 68 -25t42 -72q11 -59 15 -95l104 6q6 0 16.5 1t40 11t54.5 27l237 134q2 2 6 4t16 5.5t22.5 4t24 -4.5t22.5 -16q17 -20 21 -40t-3 -34
t-16 -25t-18 -17l-8 -6l-289 -223q-6 -5 -16.5 -13t-35 -21.5t-41.5 -14.5q-23 0 -127 -4t-196.5 -7.5t-91.5 -3.5q-1 0 -4.5 -0.5t-9 1.5t-10.5 5.5t-8 12.5t-2 22l11 144l3 -0.5t13 0.5t23 3zM176 379q-12 0 -22 8t-12 20q-8 40 -8 81q0 109 53.5 202t146.5 147t202 54
t202 -54t147 -147t54 -202q0 -34 -6 -68q-2 -12 -12 -20.5t-22 -8.5h-6q-12 2 -20.5 12.5t-8.5 22.5v6q5 28 5 56q0 90 -44.5 167t-121.5 121.5t-167 44.5t-166.5 -44.5t-121.5 -121.5t-45 -167q0 -34 7 -67q1 -3 1 -7q0 -14 -10.5 -24.5t-24.5 -10.5v0zM578 423v-31h105
l-26 -70h-79v-63l-79 -29v92h-102v70h102v31h-102v70h90l-136 190h90l100 -132l90 133h90l-131 -191h98l-31 -70h-79z" />
    <glyph glyph-name="-14" unicode="&#xe66b;" 
d="M348.5 -103q-94.5 0 -174 46.5t-126 126.5t-46.5 174t46.5 174t126 126.5t174 46.5t174 -46.5t126 -126.5t46.5 -174t-46.5 -174t-126 -126.5t-174 -46.5zM348.5 542q-123.5 0 -210.5 -87.5t-87 -210.5t87 -210.5t210.5 -87.5t210.5 87.5t87 210.5t-87 210.5t-210.5 87.5
zM491 403q7 14 7 18q-2 18 -20 21q-19 0 -28 -16l-105 -158l-105 158q-9 16 -28 16q-18 -3 -20 -21q2 -9 7 -18q2 -3 2 -5l94 -144h-55q-25 0 -25 -20q2 -16 25 -19h80v-41h-80q-25 0 -25 -20q2 -16 25 -19h80v-91q0 -23 25 -23t25 23v91h80q23 3 25 19q0 20 -25 20h-80v41
h80q23 3 25 19q0 20 -25 20h-55l94 144q0 2 2 5zM657 615q-67 0 -129.5 7.5t-115 21.5t-83.5 38t-31 54t31 54t83.5 38t115 21.5t129.5 7.5t129.5 -7.5t114.5 -21.5t83.5 -38t31.5 -54t-31.5 -54t-83.5 -38t-114.5 -21.5t-129.5 -7.5zM657 808q-94 0 -169.5 -14t-108 -30
t-32.5 -28t32.5 -28t108 -30t169.5 -14t169 14t108 30t33 28t-33 28t-108 30t-169 14zM656 483q-58 0 -112 5q-10 1 -19 2t-15.5 8t-6.5 17t7 17t18 7h3l18 -2q52 -5 107 -5q94 0 169 13.5t108 29.5t33 29q0 10 7 17t17.5 7t17.5 -7t7 -17q0 -30 -31.5 -54t-83.5 -38
t-114.5 -21.5t-129.5 -7.5zM656 350q-10 0 -17.5 7.5t-7.5 17.5t7.5 17t17.5 7q94 0 169 14t108 30t33 28q0 11 7 18t17.5 7t17.5 -7t7 -18q0 -30 -31.5 -53.5t-83.5 -38t-114.5 -22t-129.5 -7.5zM678 218v0q-10 0 -17.5 7.5t-7.5 17.5t7.5 17t17.5 7q86 2 155.5 15.5
t101 29t31.5 27.5q0 10 7 17.5t17.5 7.5t17.5 -7.5t7 -17.5q0 -37 -50 -65t-124.5 -41t-161.5 -15h-1zM656 81q-10 0 -17.5 7t-7.5 17.5t7.5 17.5t17.5 7q94 0 169 14t108 30t33 28q0 10 7 17t17.5 7t17.5 -7t7 -17q0 -30 -31.5 -54t-83.5 -38t-114.5 -21.5t-129.5 -7.5z
M991 170v0q-11 0 -18 7t-7 17v0v546q0 10 7 17t17.5 7t17.5 -7t7 -17v-546v0q0 -10 -7 -17t-17 -7v0zM322 543q-10 0 -17 7t-7 17v173q0 10 7 17t17 7t17 -7t7 -17v-173q0 -10 -7 -17t-17 -7z" />
    <glyph glyph-name="-15" unicode="&#xe66c;" 
d="M3 755q0 58 41.5 99.5t99.5 41.5h739q58 0 99.5 -41.5t41.5 -99.5v-739q0 -58 -41.5 -99.5t-99.5 -41.5h-739q-58 0 -99.5 41.5t-41.5 99.5v739v0zM293 372h130v-228q0 -38 26.5 -65t64.5 -27t65 27t27 65v228h128q23 0 27.5 29t-12.5 45l-198 258q-15 15 -36.5 15
t-37.5 -15l-200 -258q-16 -16 -11 -42.5t27 -31.5z" />
    <glyph glyph-name="-16" unicode="&#xe66d;" 
d="M1024 16q0 -58 -41.5 -99.5t-99.5 -41.5h-739q-58 0 -99.5 41.5t-41.5 99.5v739q0 58 41.5 99.5t99.5 41.5h739q58 0 99.5 -41.5t41.5 -99.5v-739zM734 400h-130v227q0 38 -26.5 65t-64.5 27t-65 -27t-27 -65v-227h-128q-23 0 -27.5 -29.5t12.5 -45.5l198 -258
q15 -15 36.5 -15t37.5 15l200 258q16 16 11 42.5t-27 32.5z" />
    <glyph glyph-name="-17" unicode="&#xe66e;" 
d="M717 627q10 20 10 26q-3 27 -30 30q-26 0 -40 -23l-153 -230l-153 230q-13 23 -40 23q-26 -3 -30 -30q4 -14 10 -26q4 -4 4 -7l136 -210h-80q-36 0 -36 -29q3 -24 36 -27h117v-60h-117q-36 0 -36 -30q3 -23 36 -26h117v-133q0 -34 36.5 -34t36.5 34v133h116q33 3 37 26
q0 30 -37 30h-116v60h116q33 3 37 26q0 30 -37 30h-80l137 210q0 3 3 7zM806 319v0q0 23 16.5 39.5t39.5 16.5v0q24 0 40 -16.5t16 -39.5v-187q0 -23 -16.5 -39t-39 -16t-39 16t-17.5 39v187zM719 110q-10 9 -7.5 27t16.5 18h270q13 -4 16 -20t-7 -25l-122 -158
q-9 -10 -22.5 -10t-22.5 10zM499 -104q-99 0 -189 38.5t-155 104t-103.5 155t-38.5 188.5t38.5 189t103.5 155t155 103.5t188.5 38.5t188.5 -38.5t155.5 -103.5t104 -155t38.5 -189v0q0 -11 -7.5 -18.5t-18.5 -7.5t-18.5 7.5t-7.5 18.5v0q0 88 -34.5 168.5t-92.5 139
t-138.5 93t-169 34.5t-168.5 -34.5t-138.5 -93t-93 -139t-34.5 -168.5t34.5 -168.5t93 -139t138.5 -93t169 -34.5v0q51 0 118 19.5t111 46.5q6 3 13 3q14 0 22 -12q6 -9 3.5 -19t-11.5 -16q-118 -73 -256 -73z" />
    <glyph glyph-name="-18" unicode="&#xe66f;" 
d="M717 627q10 20 10 26q-3 27 -30 30q-26 0 -40 -23l-153 -230l-153 230q-13 23 -40 23q-26 -3 -30 -30q4 -14 10 -26q4 -4 4 -7l136 -210h-80q-36 0 -36 -29q3 -24 36 -27h117v-60h-117q-36 0 -36 -30q3 -23 36 -26h117v-133q0 -34 36.5 -34t36.5 34v133h116q33 3 37 26
q0 30 -37 30h-116v60h116q33 3 37 26q0 30 -37 30h-80l137 210q0 3 3 7zM920 -2v0q0 -23 -16.5 -39.5t-39.5 -16.5h-1q-23 0 -39.5 16.5t-16.5 39.5v188v0q0 23 16.5 39.5t39.5 16.5h1q23 0 39.5 -16.5t16.5 -39.5v0v-188zM1007 208q10 -9 7.5 -27t-17.5 -18h-269
q-13 3 -16 19.5t6 25.5l123 158q9 9 22.5 9t22.5 -9zM499 -104q-99 0 -189 38.5t-155 104t-103.5 155t-38.5 188.5t38.5 189t103.5 155t155 103.5t188.5 38.5t188.5 -38.5t155.5 -103.5t104 -155t38.5 -189v0q0 -11 -7.5 -18.5t-18.5 -7.5t-18.5 7.5t-7.5 18.5v0
q0 88 -34.5 168.5t-92.5 139t-138.5 93t-169 34.5t-168.5 -34.5t-138.5 -93t-93 -139t-34.5 -168.5t34.5 -168.5t93 -139t138.5 -93t169 -34.5v0q51 0 118 19.5t111 46.5q6 3 13 3q14 0 22 -12q6 -9 3.5 -19t-11.5 -16q-118 -73 -256 -73z" />
    <glyph glyph-name="-19" unicode="&#xe670;" 
d="M936 38h-848q-36 0 -61.5 25.5t-25.5 61.5v536q0 36 25.5 61.5t61.5 25.5h848q36 0 61.5 -25.5t25.5 -61.5v-536q0 -36 -25.5 -61.5t-61.5 -25.5zM88 704q-18 0 -30.5 -12.5t-12.5 -30.5v-536q0 -18 12.5 -31t30.5 -13h848q18 0 30.5 13t12.5 31v536q0 18 -12.5 30.5
t-30.5 12.5h-848zM12 599h978v-199h-978v199zM894 128h-176l44 122h175zM894 118h-176q-4 0 -7 3t-3 8v3l44 121q2 8 10 8h175q5 0 8 -3.5t3 -7.5v-4l-44 -121q-2 -7 -10 -7zM734 139h152l36 100h-153z" />
    <glyph glyph-name="gongshangyinhang" unicode="&#xe697;" 
d="M512.5 -71q-92.5 0 -177 36t-145.5 97t-97 145t-36 177t36 177t97 145t145.5 97t177 36t176.5 -36t145 -97t97 -145t36 -177t-36 -177t-97 -145t-145 -97t-176.5 -36zM512 780q-108 0 -199 -53t-144 -144t-53 -199t53 -199t144 -144t199 -53t199 53t144 144t53 199
t-53 199t-144 144t-199 53zM527 192h176v83h-176v198h176v69h-176v72h248v-205h-180v-60h180v-222h-248v65zM249 349h180v60h-180v205h248v-72h-176v-69h176v-198h-176v-83h176v-65h-248v222z" />
    <glyph glyph-name="jiaotongyinhang" unicode="&#xe698;" 
d="M780 154q-31 -1 -86.5 -3t-72.5 -2q-10 -42 -46 -66t-79.5 -23t-84 17.5t-63.5 57t-14 92.5q7 53 51.5 86t102.5 31t102 -42q16 -18 24 -37.5t13 -53.5q25 1 79 3t74 3q0 68 -28.5 125.5t-77.5 93.5t-109 53.5t-127 9.5t-126 -42q-56 -32 -90.5 -88.5t-40.5 -120.5
t8 -127t54.5 -115t99.5 -77v-5q-83 1 -160.5 57t-97.5 131l2 543q43 29 135.5 94.5t136.5 94.5q2 -1 5.5 -2.5t4.5 -2.5q-7 -105 3 -315q10 9 31 31t32.5 32.5t31.5 25.5t42.5 24t49.5 14q85 16 156 -8q67 -23 116.5 -67t75 -96.5t30.5 -112.5t-11 -115t-55 -103.5
t-96 -78.5q-3 0 -12 -5.5t-14 -6.5q0 1 1.5 3.5t4 6.5t4.5 7q3 12 10 38.5t11 40.5zM780 154z" />
    <glyph glyph-name="jiansheyinhang" unicode="&#xe699;" 
d="M913 355h-165q-11 0 -16 -2l-13 -9l-203 -206q-6 -5 -12 0l-216 219q-6 6 0 12l217 220q2 3 5.5 3t5.5 -3l190 -194q8 -9 17 -12q4 0 9.5 2t8.5 5l4 2l87 92l-256 258q-56 58 -136 47q-154 -26 -254 -147t-100 -281q0 -88 34 -168.5t91.5 -138t136 -92t163.5 -34.5
q110 0 206 55.5t154.5 151.5t63.5 210q0 6 -5 9q-2 2 -6.5 2.5t-7.5 -0.5zM644 749l224 -226l62 61q6 10 8 19q1 2 -1.5 5.5t-4.5 5.5l-3 2l-136 140q-36 37 -77.5 57.5t-74.5 23.5t-61.5 1t-43.5 -8l-16 -6q3 0 7.5 -0.5t18 -4.5t27.5 -11t33.5 -22.5t37.5 -36.5z" />
    <glyph glyph-name="huaxiayinhang" unicode="&#xe69a;" 
d="M932 126q46 56 49 80l-3 9q-7 6 -22 -22q-1 -3 -3 -6q3 2 1.5 14t-13.5 2q-10 -12 -26 -29.5t-51 -48t-52 -32.5q-6 -4 -16.5 -9t-42.5 -16t-63.5 -15.5t-74.5 1.5t-79.5 26.5t-74.5 67.5t-65 116q-2 7 -5 18.5t-5.5 45.5t2.5 66.5t26 75t58 76.5q182 167 379 21
q7 8 17.5 19t33.5 26.5t34 9.5q1 0 2.5 1t5 4.5t5 7t2.5 9t-3 11.5l-33 42q-6 -1 -14.5 -2t-31 -0.5t-39.5 4.5t-30.5 17t-12.5 33v3t-0.5 7.5t-3 9.5t-8.5 9t-15 7.5t-24 2t-34 -5.5l-6.5 6.5t-9.5 12.5t-5 15l-3 8q-15 19 -93 6q-6 -1 -17.5 -3t-46.5 -15.5t-70.5 -34
t-86 -61.5t-97.5 -94l-42 -30q-109 -66 -123 10q-2 10 -2 24q-4 -4 -9.5 -11t-19 -27t-21 -39t-7 -44.5t13.5 -46.5q3 -3 7.5 -8t19.5 -15t32.5 -14.5t45.5 0.5t58 23q-2 -11 -3 -29t2.5 -70t15 -98.5t43 -102t78.5 -92.5q4 -4 11 -10t29.5 -21.5t46.5 -29.5t59.5 -28.5
t71 -22t79.5 -7.5t86 12q7 2 19 5.5t45 19t62 36.5t61 60.5t50 87.5v0q-4 -4 -9.5 -9t-17 -12.5t-17.5 -6.5zM549 236h283v216l-283 -2v-214v0z" />
    <glyph glyph-name="xingyeyinhang" unicode="&#xe69b;" 
d="M1024 387q0 65 -53.5 119.5t-145 86.5t-198.5 32q-131 0 -234 -45.5t-143 -117.5v0q-8 -13 -8 -28q0 -36 38 -58l202 -116q16 -9 35.5 -9t36.5 9l191 110q21 12 21 32q0 19 -20 31l-71 41l-157 -90l-119 68q35 32 96 51t134 19q110 0 187.5 -41t77.5 -99
q-1 -58 -54 -106.5t-142 -75t-193.5 -23.5t-192 34t-138 82t-48.5 110v0q1 77 62.5 142t167 102t230.5 35q33 0 66 -3q-83 30 -187 30q-83 0 -154 -20q-139 -38 -225 -119.5t-86 -182.5q0 -89 68.5 -164.5t186.5 -119.5t257 -44t257 44t186.5 119.5t68.5 164.5v0z" />
    <glyph glyph-name="guangdayinhang" unicode="&#xe69c;" 
d="M0 608h229q44 0 52 -13h-43v-13h65q11 -8 11 -13l-76 -1v-12h84q1 -1 2.5 -2t4 -5t1.5 -9h-262v-14l266 1q1 -11 1 -14h-267v-14l268 1q2 -8 -2 -14l-266 -2v-13l262 1q0 -10 -7 -13l-255 -2v-12l247 1q-1 -13 -10 -15l-237 -1v-13l217 2q0 -2 -2 -5t-11.5 -7t-24.5 -3
l-41 1v-12l67 -1q27 0 31 -12l-98 -2v-12h115q11 -8 11 -13l-264 -2v-15l270 3q10 -8 10 -15l-280 -1v-13h284q1 0 1.5 -1t1 -4t-0.5 -6l-286 -3v-12h286q2 -7 0 -13l-286 -1v-14h284q2 -8 -5 -14h-279v-13l274 1q-1 -13 -7 -14h-97v-14l84 1q-6 -13 -11 -15l-73 -1v-14
l49 1q-1 -2 -4 -4.5t-21 -6t-47 -2.5l-215 1v446v0zM586 386l2 -222h62l-1 107q-2 23 2.5 37.5t8.5 17.5l5 3q22 12 35.5 8.5t19.5 -13.5l6 -10l1 -150h61l-1 166q-4 21 -13.5 36t-20.5 20t-21.5 7.5t-17.5 1.5l-6 -1q-12 2 -27 -6t-24 -17l-10 -9l1 24h-62v0zM810 476
l2 -312h61l-1 50l30 41l50 -91l72 2l-78 142l65 89h-71l-70 -91l-3 170h-57zM565 189l-3 147q0 22 -14 35.5t-33 17t-38 4t-32 -1.5l-13 -2q-19 -4 -32.5 -12.5t-18.5 -18.5t-8 -19.5t-2 -15.5v-6l61 1q1 16 15 21.5t27 3.5l14 -2q16 -14 14.5 -22.5t-11.5 -11.5l-10 -3
q-9 0 -29.5 -4.5t-37.5 -9.5l-16 -4q-17 -7 -26.5 -21t-9.5 -24l-1 -11q0 -18 6 -31t14.5 -19.5t17 -10.5t13.5 -5l6 -1q24 -5 45.5 0t30.5 14l10 8l4 -23l65 2zM504 242q-6 -21 -25 -30q-5 -2 -12 -5t-21.5 -1.5t-20.5 15.5q-4 19 14 26q49 18 66 23q1 -12 -1 -28z" />
    <glyph glyph-name="youzhengyinhang" unicode="&#xe69d;" 
d="M164 336l-5 -24h124l6 24h-125zM478 312l4 24h-140l-5 -24h141zM556 430l-19 -94l-5 -24l-20 -94h-195l-4 -22h228l30 140l20 94h273l-21 -94h-218l-49 -235h-283l-4 -22h317l30 139l19 94h184l-19 -94h-131l-28 -139l-21 -95h-426l50 234h-179l21 94l4 24l21 94h177
l49 234h195l25 118h361l-21 -95h-307l-4 -23l-19 -95h-196l-5 -22h229l4 22l21 95h273l-20 -95h-219l-24 -117h-283l-6 -22h195v0z" />
    <glyph glyph-name="zhongguoyinhang" unicode="&#xe69e;" 
d="M966 404q-1 45 -12.5 90t-27 76.5t-30.5 56.5t-25 37l-10 12q-44 51 -96 86.5t-95.5 50t-81 22t-58.5 6.5h-22q-43 1 -85 -6.5t-75 -21.5t-62.5 -30.5t-51 -33.5t-37 -31t-23 -23l-7.5 -9q-81 -97 -98 -198l-1 -7q-13 -48 -11 -95.5t9 -84t18.5 -67.5t18 -45t8.5 -16
q44 -81 96 -127.5t134 -84.5q80 -37 184 -34t180 41t125 85.5t89 124.5q25 46 37 104.5t10.5 86t-0.5 35.5v0zM466 28q-7 1 -19 2.5t-45.5 12t-64 26.5t-67 50.5t-62.5 79.5q-2 2 -4.5 6.5t-10 19t-14 30t-13 39.5t-10 47.5t-2.5 53.5t8 59q6 26 14 49.5t16.5 41.5t19 35
t19 28t18.5 22.5t15.5 17t13 12t8.5 7.5q18 17 77 45t103 27v-169h-71q-4 0 -10.5 -1t-23 -8t-29.5 -17.5t-24 -33.5t-12 -53v-156q0 -4 1 -10.5t6.5 -23.5t15.5 -30.5t30.5 -26t48.5 -15.5h68v-167v0zM408 294q-16 -4 -19 15v149q0 2 1 4.5t5 7t9 4.5h207q18 4 20 -16v-145
q0 -2 0.5 -6t-2.5 -9.5t-11 -3.5h-210zM812 184q-31 -48 -82 -84.5t-95 -52.5t-77 -19v167h79q3 0 8.5 2t20.5 9.5t26.5 18t21.5 30.5t12 45v177l-2.5 10t-9 21.5t-18 27.5t-31 22.5t-46.5 11.5h-61v169q4 0 11.5 -1.5t30.5 -7t44.5 -14t50.5 -25.5t52 -39q91 -85 116 -201
q4 -19 5 -46t-2 -63.5t-16.5 -78.5t-37.5 -79zM812 184z" />
    <glyph glyph-name="shanghainongshangyinhang-yy" unicode="&#xe70f;" 
d="M454 -52q37 -6 72 -6q115 0 209 57t152 155q63 154 2 230q-3 4 -12 13.5t-19 20t-11 11.5q-36 36 -98 44q62 -8 95 -42t24 -59q-61 -271 -281 -342q-117 -38 -240 -14q-54 10 -107 34q93 -82 214 -102v0zM621 737q-83 3 -159.5 -30t-134.5 -92l219 -228q29 41 73 65
t94 24q86 0 134 -47q33 -33 42 -44q64 -81 -8 -244q67 104 79 232q3 41 -6 87.5t-34.5 95t-64 87.5t-99.5 65t-135 29zM567 820q-32 5 -70 6h-1q-115 0 -209 -57t-152 -155q-63 -154 -2 -230q13 -17 42 -45q35 -35 94 -44q-60 10 -92 43.5t-23 57.5q61 271 282 342
q116 38 239 14q54 -10 107 -34q-93 82 -214 102h-1zM401 31q83 -3 159.5 30t134.5 93l-219 228q-29 -42 -73 -66t-94 -24q-87 0 -134 47q-27 26 -42 45q-64 80 8 244q-67 -104 -79 -233q-3 -41 6 -87.5t34.5 -94.5t64 -87t99.5 -65.5t135 -29.5v0z" />
    <glyph glyph-name="ren-copy" unicode="&#xe716;" 
d="M842 185q-10 9 -21 16q-81 58 -149 84.5t-153 26.5t-152 -26t-147 -83q-39 -24 -63 -62v3q-10 -8 -30 -57l-4 -12v-132h794v126q-24 73 -75 116zM276 592.5q0 -98.5 70 -168.5t168.5 -70t168.5 70t70 168v0q0 99 -70 169t-168.5 70t-168.5 -70t-70 -168.5z" />
    <glyph glyph-name="mima" unicode="&#xe736;" 
d="M760 371v103q0 5 -0.5 14t-5 34t-13 48t-26.5 50.5t-42.5 47.5t-64.5 34t-89.5 14t-89.5 -13.5t-64.5 -34.5t-42.5 -47t-26 -51.5t-13 -47t-6 -34.5v-14v-103h-104v-484h691v484h-104zM553 104v-113h-69v113q-34 20 -34 59q0 29 20 49.5t48.5 20.5t49 -20.5t20.5 -49.5
q0 -39 -35 -59zM691 371h-345v103q0 14 2 29.5t12.5 43t27.5 48t51 36.5t79.5 16t80 -16t51.5 -36.5t27 -48t12 -43t2 -29.5v-103z" />
    <glyph glyph-name="yinlianzhifu" unicode="&#xe777;" 
d="M237 129l75 323h-2v0q-3 0 -10 -3q-1 -5 -7 -33q-2 -12 -5 -28l-2 -1q-16 0 -32 -1l-1 2q4 15 7 31q7 29 10 53l1 1q19 2 35 5l1 -1l-2 -9q6 4 8 5l4 2l39 164q6 26 29 45t50 19h-233q-27 0 -50.5 -19t-29.5 -45l-119 -510q-6 -26 8.5 -45t41.5 -19h233q-26 0 -40.5 19
t-8.5 45zM214 397q-18 -11 -46 -11q-38 0 -48 18q-4 7 -4 17l3 23l2 7l19 84q1 5 1 6q1 -1 43 -1v-1l-22 -84l-4 -22l1 -4q1 -17 19 -17q11 0 19 7q9 7 16 35q0 1 4.5 21t9 42t5.5 24q4 -1 36 -1v-1l-23 -87l-2 -9q-9 -34 -29 -46zM518 129l20 85h-8h-16q-7 1 -9 2
q-5 5 -5 7q0 3 2 11l40 132h29l-5 -15q2 2 5 4l7 32q-7 0 -18 -1l-1 2q1 3 2.5 9t1.5 8l2 7q5 23 6 31q1 9 -6 9q-3 0 -10 -3q-1 -3 -7 -33q-2 -9 -6 -28l-1 -1q-16 0 -33 -1v2q3 15 7 31q7 29 10 53l1 1q19 2 34 5l2 -1l-3 -9q4 2 8 5q10 4 21 4q6 0 11 -2l38 164
q6 26 29.5 45t49.5 19h-281q-27 0 -50 -19t-29 -45l-39 -164q9 2 16 2q14 0 18 -10q3 -7 -3 -33l-2 -9q-4 -21 -7 -37l-2 -1q-16 0 -32 -1v2l1.5 6.5t2.5 10.5l1 7q6 24 6 31q1 8 -4 9l-75 -323q-6 -26 8.5 -45t40.5 -19h282q-27 0 -41.5 19t-8.5 45zM528 355l-6 -20h-46
l-5 -5q-1 -1 -2.5 -1.5t-2.5 -0.5q-8 -4 -15 -4h-15l6 19h4q6 0 8 1q2 2 5 7l8 15h33l-5 -11h33zM408 462q-3 -15 -6 -26q-1 -2 -2.5 -8t-1.5 -9q-2 -5 -3 -9.5t-1.5 -6.5t-0.5 -4q0 -1 -1 -4.5t-1 -6.5l-1 -1h-1h-17q-4 0 -17 -1v1l-1 1q2 5 4 12q2 4 4 12q3 14 5 21
q0 1 2 12t3 14q-1 6 6 11q15 10 27 3q7 -4 3 -11zM415 432q5 22 17 33q14 13 38 13q22 0 31 -11t4 -35q-5 -19 -14 -30q-15 -16 -41 -16q-13 0 -21 4q-22 9 -14 42zM484 214h-37q-3 0 -8 1q-4 1 -6 5q-4 4 -2 8l10 36h-18l6 20h19l4 17h-18l6 19h81l-6 -19h-32l-5 -17h33
l-6 -20h-33l-9 -27q-1 -3 12 -3l16 2zM565 344l-7 -23q2 2 6 4l4 19h-3zM454 407q5 0 10 6q4 6 7 21q6 24 -5 24t-17 -27q-3 -9 -3 -15q1 -9 8 -9zM535 244q-1 -6 -1 -7q2 -2 5 -2h4l12 50h-7zM556 313l-3 -9h6l2 9h-5zM774 406q9 0 13 7q2 2 4 7q2 10 3 13l2 8q1 16 -9 16
q-12 0 -18 -27q-2 -9 -2 -14q0 -10 7 -10zM599 304l3 9h-41l-2 -9h34h6v0zM971 703h-255q-26 0 -49.5 -19t-29.5 -45l-38 -164q5 -2 7 -8q3 -7 -3 -33l-2 -9q-5 -21 -7 -37l-2 -1h-11h-3l-7 -32q6 4 11 6l20 4l46 1l-16 -52q-3 -12 -7 -18q-3 -4 -8 -7q-6 -3 -11 -3
q-4 -1 -14 -1h-37l-12 -50l15 2l-6 -23h-14l-20 -85q-6 -26 8.5 -45t41.5 -19h254q27 0 50.5 19t29.5 45l119 510q6 26 -8.5 45t-41.5 19zM789 477q7 -2 11 -9l1 4l1 1q20 3 36 6v-2q-6 -24 -8 -36q-6 -25 -11 -52l-1 -1h-34l-1 1q1 4 1 5q-9 -7 -17 -7q-1 -1 -2 -1
q-8 0 -16 4q-21 8 -14 41q5 22 18 33q9 9 19.5 12.5t16.5 0.5zM613 387l25 102l10 46q1 4 1 6q7 -1 43 -1h11q40 0 50 -13q5 -7 5 -18q0 -6 -2 -14q-6 -25 -25 -39q-18 -14 -63 -14h-2l-3 -3l-5 -21l-1.5 -6.5t-3 -15t-2.5 -10.5q-5 1 -38 1zM622 269q-2 -7 -5 -9
q-6 -6 -15 -6h-16v-15q0 -2 2 -4q0 -1 2 -1h5l15 1l-6 -21h-18q-20 0 -24 3q-3 2 -3 8l1 55h28l-1 -11h7q3 0 4.5 1t2.5 3l2 9h22zM719 214h-30l2 7h-60l6 19h6l32 105l6 21h30l-3 -11q8 6 16 8q7 2 47 3v0h2h2v0h29v-12q0 -3 5 -3h7l-6 -20h-18q-21 -2 -20 12v12l-3 -10
h-11l-31 -103h8l-6 -21h-8zM852 305h-32l-5 -16h32l-5 -17h-35l-7 -8h15l3 -22q1 -4 1 -5q1 -1 8 -1h4l-7 -21h-11h-7q-1 0 -8 3q-5 3 -6 8l-3 22l-16 -22q-9 -12 -23 -12h-23l6 19h9q2 0 6 2q3 1 5 4l23 33h-31l5 17h35l5 16h-34l6 20h96zM872 367l-1 -2v0l-12 -21
q-7 -13 -23 -13h-20l6 20h4h4q2 1 3 2l7 12v0q5 8 12 20t11 18q-2 15 -5 38q0 4 -1 11.5t-2 11.5q-2 15 -3 23v0v0.5v1.5l1 1q8 1 33 5l1 -1l2 -43v-2q4 9 9 17.5t11 21.5v0v1l1 1q15 2 33 5l1 -1v-1q-64 -109 -72 -126zM609 333l3 11h-44l-4 -19q9 6 19 7zM700 470
q13 6 17 23t-10 23l-22 2h-4v-2l-1 -2l-2.5 -11.5t-5.5 -22.5l-2 -12l-1 -2h6q17 0 25 4zM674 242h24l7 23h-24zM705 345l-8 -27q9 4 14 6l12 2l6 19h-24zM685 278q9 5 14 6l12 2l6 19h-24z" />
    <glyph glyph-name="xinyonghezuoshe3" unicode="&#xe922;" 
d="M277 505q-17 17 -17 44q0 5 0.5 10t1.5 8.5t1.5 6.5t1.5 4.5l2 3l1 1.5l1 1l139 173l-35 35l-295 -339q-18 -26 -18 -52q0 -11 4.5 -24t8.5 -20l5 -8l156 -182q17 -17 17 -35q0 -7 -2 -13.5t-4 -9.5l-2 -3l-131 -130h226l148 182q9 27 9 61q0 15 -2.5 26t-4.5 14l-2 4
l-209 242v0v0zM946 349q18 26 18 52q0 12 -4.5 25t-8.5 20l-5 7l-295 339l-35 -35l139 -173q9 -8 9 -35q0 -12 -4.5 -23t-8.5 -16l-4 -5l-209 -242q-9 -10 -9 -44q0 -15 2.5 -30t4.5 -23l2 -8l148 -182h226l-131 130q-8 9 -8 26q0 8 4 16.5t9 13.5l4 5l156 182v0v0zM677 540
h-95l-70 -69l-87 87l87 86l70 -69h95q-1 6 -3.5 16t-15 35.5t-29 45t-48 35t-69.5 15.5q-39 0 -69.5 -13t-48 -32.5t-28.5 -43.5t-15 -42.5t-4 -32.5q0 -16 3 -33.5t13.5 -42.5t27 -43.5t48.5 -32t73 -13.5t73 15t48.5 36.5t27 43.5t13.5 37l3 15v0z" />
  </font>
</defs>
</svg>
